Специалист | Оперативная память персонального компьютера (2014) PCRec

Ответить на тему
Статистика раздачи
Нет
   
 
Автор Сообщение

KianA ®

Стаж: 6 года 7 месяца

Сообщений: 310

Создавать темы 08-Мар-2015 20:04

[Цитировать]

-Специалист | Оперативная память персонального компьютера (2014) PCRec- Автор (режиссер): Центр «Специалист»
Жанр: Оперативная память, ОЗУ
Продолжительность: 01:29:44
Качество видео: PCRec
Видеокодек: MPEG4 Video
Битрейт видео: ~30fps 2000kbps
Размер кадра: 1280x720
Аудиокодек: AAC 2.0
Битрейт аудио: 48000Hz stereo 192kbps
Описание:
Узнайте все об оперативной памяти персонального компьютера.
Просмотрев данное видео, Вы научитесь выбирать, устанавливать и настраивать оперативную память персонального компьютера. В представленном фильме, талантливый педагог Центра «Специалист» - Н. Захаров, грамотно и доходчиво преподносит материал и с удовольствием делится своим богатейшим опытом по эксплуатации и обслуживанию вычислительной техники.
Зачастую случается так, что пользователи ПК испытывают трудности при наладке компьютерной техники, а умение самостоятельно настраивать, ремонтировать и обслуживать компьютер это очень важное умение в современном мире, не зависимо от того, будете Вы применять свои навыки дома или в работе.

Дополнительная информация:

Краткое содержание:
• Обзор типов оперативной памяти ПК (DDR, DDR2, DDR3, DDR4).
• Настройка памяти в BIOS Setup.
• Модули памяти.
• Выбор и установка модулей памяти после выбора CPU и материнской платы.
• Обеспечение многоканального режима.
• Пропускная способность памяти (Пропускная способность шины памяти)
• Частота работы памяти (частота шины памяти)
• Эффективная частота x Разрядность шины

MI

Общее
Полное имя : D:\Торренты\Operativnaia.pamjat.720.mp4
Формат : MPEG-4
Профиль формата : Base Media
Идентификатор кодека : isom
Размер файла : 1,38 Гбайт
Продолжительность : 1 ч. 29 м.
Общий поток : 2200 Кбит/сек
Программа кодирования : Lavf56.4.102
Видео
Идентификатор : 1
Формат : MPEG-4 Visual
Профиль формата : Simple@L1
Параметр BVOP формата : Нет
Параметр QPel формата : Нет
Параметр GMC формата : Без точки перехода
Параметр матрицы формата : Default (H.263)
Идентификатор кодека : 20
Продолжительность : 1 ч. 29 м.
Вид битрейта : Постоянный
Битрейт : 2001 Кбит/сек
Ширина : 1280 пикселей
Высота : 720 пикселей
Соотношение сторон : 16:9
Режим частоты кадров : Постоянный
Частота кадров : 30,000 кадров/сек
Цветовое пространство : YUV
Субдискретизация насыщенности : 4:2:0
Битовая глубина : 8 бит
Тип развёртки : Прогрессивная
Метод сжатия : С потерями
Бит/(Пиксели*Кадры) : 0.072
Размер потока : 1,25 Гбайт (91%)
Библиотека кодирования : Lavc56.1.101
Язык : English
Аудио
Идентификатор : 2
Формат : AAC
Формат/Информация : Advanced Audio Codec
Профиль формата : LC
Идентификатор кодека : 40
Продолжительность : 1 ч. 29 м.
Вид битрейта : Постоянный
Битрейт : 192 Кбит/сек
Каналы : 2 канала
Расположение каналов : Front: L R
Частота : 48,0 КГц
Метод сжатия : С потерями
Размер потока : 124 Мбайт (9%)
Язык : English
Скриншоты:


Последний раз редактировалось: KianA (2015-03-08 21:12), всего редактировалось 2 раз(а)
[Профиль] [ЛС]
Показать сообщения:    
Ответить на тему

Текущее время: 29-Ноя 22:37

Часовой пояс: UTC + 3



Вы не можете начинать темы
Вы не можете отвечать на сообщения
Вы не можете редактировать свои сообщения
Вы не можете удалять свои сообщения
Вы не можете голосовать в опросах
Вы не можете прикреплять файлы к сообщениям
Вы не можете скачивать файлы