Школа современных технологий | Среда знаний. Сайт на WordPress за 2 часа (2015) PCRec 720p

Ответить на тему
Статистика раздачи
Нет
   
 
Автор Сообщение

KianA ®

Стаж: 6 года 7 месяца

Сообщений: 310

Создавать темы 16-Сен-2015 04:59

[Цитировать]

- Школа современных технологий | Среда знаний. Сайт на WordPress за 2 часа (2015) PCRec [H.264/720p]- Автор (режиссер): Альбина Полушкина
Жанр: CMS, WordPress
Описание:
Овладейте навыками создания сайтов на одной из популярнейших CMS-систем.
Создавать стандартные сайты, не тратя на это много времени.
Понимать, как работает WordPress и изучить основные его возможности.
Начать зарабатывать прямо сейчас на создании функциональных и современных сайтов.

Содержание курса:

Установку WP на Denwer;
Создание и подключение темы;
Стандартные файлы и их подключение;
Функции вывода WordPress;
Подключение Sidebar;
Перенос WP на хостинг
Продолжительность: 01:43:10
Качество видео: PCRec
Видео: AVC/H.264, 1280x720, ~247-291 kbps
Аудио: AAC, 2 ch, 126 kbps, VBR

Mediainfo:

Общее
Полное имя                               : C:\Сайт на WordPress за 2 часа - 2015\2.mp4
Формат                                   : MPEG-4
Профиль формата                          : Base Media / Version 2
Идентификатор кодека                     : mp42
Размер файла                             : 131 Мбайт
Продолжительность                        : 48 м.
Режим общего битрейта                    : Переменный
Общий поток                              : 375 Кбит/сек
Дата кодирования                         : UTC 2015-02-26 16:07:10
Дата пометки                             : UTC 2015-02-26 16:07:10
Видео
Идентификатор                            : 1
Формат                                   : AVC
Формат/Информация                        : Advanced Video Codec
Профиль формата                          : [url=mailto:Baseline@L3.1]Baseline@L3.1[/url]
Параметр CABAC формата                   : Нет
Параметр ReFrames формата                : 3 кадра
Идентификатор кодека                     : avc1
Идентификатор кодека/Информация          : Advanced Video Coding
Продолжительность                        : 48 м.
Битрейт                                  : 247 Кбит/сек
Ширина                                   : 1280 пикселей
Высота                                   : 720 пикселей
Соотношение сторон                       : 16:9
Режим частоты кадров                     : Постоянный
Частота кадров                           : 30,000 кадров/сек
Стандарт вещания                         : NTSC
Цветовое пространство                    : YUV
Субдискретизация насыщенности            : 4:2:0
Битовая глубина                          : 8 бит
Тип развёртки                            : Прогрессивная
Бит/(Пиксели*Кадры)                      : 0.009
Размер потока                            : 86,2 Мбайт (66%)
Язык                                     : English
Дата кодирования                         : UTC 2015-02-26 16:07:11
Дата пометки                             : UTC 2015-02-26 16:07:11
Цветовой диапазон                        : Limited
Аудио
Идентификатор                            : 2
Формат                                   : AAC
Формат/Информация                        : Advanced Audio Codec
Профиль формата                          : LC
Идентификатор кодека                     : 40
Продолжительность                        : 48 м.
Вид битрейта                             : Переменный
Битрейт                                  : 126 Кбит/сек
Максимальный битрейт                     : 172 Кбит/сек
Каналы                                   : 2 канала
Расположение каналов                     : Front: L R
Частота                                  : 44,1 КГц
Метод сжатия                             : С потерями
Размер потока                            : 43,9 Мбайт (33%)
Язык                                     : English
Дата кодирования                         : UTC 2015-02-26 16:07:11
Дата пометки                             : UTC 2015-02-26 16:07:11
Общее
Полное имя                               : C:\Сайт на WordPress за 2 часа - 2015\1.mp4
Формат                                   : MPEG-4
Профиль формата                          : Base Media / Version 2
Идентификатор кодека                     : mp42
Размер файла                             : 163 Мбайт
Продолжительность                        : 54 м.
Режим общего битрейта                    : Переменный
Общий поток                              : 419 Кбит/сек
Дата кодирования                         : UTC 2015-02-26 16:45:56
Дата пометки                             : UTC 2015-02-26 16:45:56
Видео
Идентификатор                            : 1
Формат                                   : AVC
Формат/Информация                        : Advanced Video Codec
Профиль формата                          : [url=mailto:Baseline@L3.1]Baseline@L3.1[/url]
Параметр CABAC формата                   : Нет
Параметр ReFrames формата                : 3 кадра
Идентификатор кодека                     : avc1
Идентификатор кодека/Информация          : Advanced Video Coding
Продолжительность                        : 54 м.
Битрейт                                  : 291 Кбит/сек
Ширина                                   : 1280 пикселей
Высота                                   : 720 пикселей
Соотношение сторон                       : 16:9
Режим частоты кадров                     : Постоянный
Частота кадров                           : 30,000 кадров/сек
Стандарт вещания                         : NTSC
Цветовое пространство                    : YUV
Субдискретизация насыщенности            : 4:2:0
Битовая глубина                          : 8 бит
Тип развёртки                            : Прогрессивная
Бит/(Пиксели*Кадры)                      : 0.011
Размер потока                            : 113 Мбайт (69%)
Язык                                     : English
Дата кодирования                         : UTC 2015-02-26 16:45:57
Дата пометки                             : UTC 2015-02-26 16:45:57
Цветовой диапазон                        : Limited
Аудио
Идентификатор                            : 2
Формат                                   : AAC
Формат/Информация                        : Advanced Audio Codec
Профиль формата                          : LC
Идентификатор кодека                     : 40
Продолжительность                        : 54 м.
Вид битрейта                             : Переменный
Битрейт                                  : 126 Кбит/сек
Максимальный битрейт                     : 222 Кбит/сек
Каналы                                   : 2 канала
Расположение каналов                     : Front: L R
Частота                                  : 44,1 КГц
Метод сжатия                             : С потерями
Размер потока                            : 48,8 Мбайт (30%)
Язык                                     : English
Дата кодирования                         : UTC 2015-02-26 16:45:57
Дата пометки                             : UTC 2015-02-26 16:45:57
Скриншоты:
[Профиль] [ЛС]
Показать сообщения:    
Ответить на тему

Текущее время: 29-Ноя 23:03

Часовой пояс: UTC + 3



Вы не можете начинать темы
Вы не можете отвечать на сообщения
Вы не можете редактировать свои сообщения
Вы не можете удалять свои сообщения
Вы не можете голосовать в опросах
Вы не можете прикреплять файлы к сообщениям
Вы не можете скачивать файлы