Конец прекрасной эпохи (Станислав Говорухин) (2014, Драма, Комедия) WEB-DLRip [H.264]

Ответить на тему
 
Автор Сообщение

messer20080 ®

Пол: Мужской

Стаж: 8 года

Сообщений: 1927

Создавать темы 25-Окт-2015 10:42

[Цитировать]

- Конец прекрасной эпохи (2014) WEB-DLRip [H.264] - Производство: Россия, Мосфильм, Вертикаль
Жанр: Драма, Комедия
Режиссер: Станислав Говорухин
Актеры: Иван Колесников, Сергей Гармаш, Фёдор Добронравов, Дмитрий Астрахан, Юлиан Макаров, Лембит Ульфсак, Александра Нижегородова, Юлия Тройникова, Тыну Карк, Сергей Епишев, Светлана Ходченкова
Описание:
Молодому журналисту и писателю Андрею Лентулову, известному прямотой своих взглядов, свободой мысли и дерзостью суждений, предлагают переехать из Питера в Таллин, чтобы работать в местной газете. Там Андрей с головой уходит в полный противоречий роман с редактором Мариной, бесконечные случайные связи, но, что самое главное — яростное сопротивление системе. Какой была борьба бунтаря, любимца женщин и «самого аморального сотрудника» против жесточайшей цензуры, слежки и ханжества, и кто в ней победил?

Дата премьеры в России: 1 октября 2015, «Люксор»
Продолжительность: 01:34:01
Качество видео: WEB-DLRip
Перевод: Не требуется, русский (iTunes Russia)
Вид субтитров: Отсутствуют
Видео: AVC/H.264, 1024x554, ~2498 Кбит/с
Аудио: AC3, 6 ch, 384 Кбит/с, CBR
Семпл: Скачать

Mediainfo:

General
Unique ID                      : 217713056155966125039202316000185040338 (0xA3CA0268EC0BC5A18C4FD086BDC43DD2)
Complete name                  : D:\Downloading\Konec.2015.x264.WEB-DLRip.(AVC).mkv
Format                         : Matroska
Format version                 : Version 2
File size                      : 1.89 GiB
Duration                       : 1h 34mn
Overall bit rate               : 2 884 Kbps
Movie name                     : Конец прекрасной эпохи.2015
Encoded date                   : UTC 2015-10-22 00:20:12
Writing application            : mkvmerge v5.6.0 ('Kenya Kane') built on May 27 2012 16:44:04
Writing library                : libebml v1.2.3 + libmatroska v1.3.0
Video
ID                             : 1
Format                         : AVC
Format/Info                    : Advanced Video Codec
Format profile                 : [url=mailto:High@L4.1]High@L4.1[/url]
Format settings, CABAC         : Yes
Format settings, ReFrames      : 9 frames
Codec ID                       : V_MPEG4/ISO/AVC
Duration                       : 1h 34mn
Bit rate                       : 2 498 Kbps
Width                          : 1 024 pixels
Height                         : 554 pixels
Display aspect ratio           : 1.85:1
Frame rate mode                : Constant
Frame rate                     : 25.000 fps
Color space                    : YUV
Chroma subsampling             : 4:2:0
Bit depth                      : 8 bits
Scan type                      : Progressive
Bits/(Pixel*Frame)             : 0.176
Stream size                    : 1.60 GiB (85%)
Writing library                : x264 core 125 r2200 999b753
Encoding settings              : cabac=1 / ref=9 / deblock=1:-3:-3 / analyse=0x3:0x133 / me=umh / subme=11 / psy=1 / psy_rd=1.00:0.15 / mixed_ref=1 / me_range=32 / chroma_me=1 / trellis=2 / 8x8dct=1 / cqm=0 / deadzone=21,11 / fast_pskip=0 / chroma_qp_offset=-3 / threads=12 / lookahead_threads=2 / sliced_threads=0 / nr=0 / decimate=0 / interlaced=0 / bluray_compat=0 / constrained_intra=0 / bframes=9 / b_pyramid=2 / b_adapt=2 / b_bias=0 / direct=3 / weightb=1 / open_gop=0 / weightp=2 / keyint=250 / keyint_min=25 / scenecut=40 / intra_refresh=0 / rc=2pass / mbtree=0 / bitrate=2498 / ratetol=1.0 / qcomp=0.60 / qpmin=0 / qpmax=69 / qpstep=4 / cplxblur=20.0 / qblur=0.5 / ip_ratio=1.40 / pb_ratio=1.30 / aq=1:1.00
Language                       : Russian
Default                        : Yes
Forced                         : No
Audio
ID                             : 2
Format                         : AC-3
Format/Info                    : Audio Coding 3
Mode extension                 : CM (complete main)
Format settings, Endianness    : Big
Codec ID                       : A_AC3
Duration                       : 1h 34mn
Bit rate mode                  : Constant
Bit rate                       : 384 Kbps
Channel(s)                     : 6 channels
Channel positions              : Front: L C R, Side: L R, LFE
Sampling rate                  : 48.0 KHz
Compression mode               : Lossy
Stream size                    : 258 MiB (13%)
Title                          : iTunes Russia
Language                       : Russian
Default                        : Yes
Forced                         : No
Скриншоты:


Последний раз редактировалось: messer20080 (2015-10-25 12:58), всего редактировалось 3 раз(а)
[Профиль] [ЛС]

messer20080 ®

Пол: Мужской

Стаж: 8 года

Сообщений: 1927

Создавать темы 25-Окт-2015 10:43 (спустя 45 секунды)

[Цитировать]

фильма на пятерку. Я случайно 4 поставил
[Профиль] [ЛС]

xohllenok

Пол: Мужской

Стаж: 7 года 1 месяц

Сообщений: 582

Создавать темы 25-Окт-2015 12:42 (спустя 1 час 59 минуты)

[Цитировать]

странно на постере есть тот кого в описание актёров нет прошу вас добавить её!
[Профиль] [ЛС]

messer20080 ®

Пол: Мужской

Стаж: 8 года

Сообщений: 1927

Создавать темы 25-Окт-2015 12:59 (спустя 16 минуты)

[Цитировать]

17798странно на постере есть тот кого в описание актёров нет прошу вас добавить её!
добавил Светлана Ходченкова
фотки
[Профиль] [ЛС]
Показать сообщения:    
Ответить на тему

Текущее время: 05-Мар 10:42

Часовой пояс: UTC + 3



Вы не можете начинать темы
Вы не можете отвечать на сообщения
Вы не можете редактировать свои сообщения
Вы не можете удалять свои сообщения
Вы не можете голосовать в опросах
Вы не можете прикреплять файлы к сообщениям
Вы не можете скачивать файлы