Малыш и Карлсон - Все серии. Петя и Красная Шапочка. Опять двойка (1957-1970/BDRip 1080p)

Ответить на тему
Статистика раздачи
Нет
   
 
Автор Сообщение

utermidai ®

Стаж: 6 года 8 месяца

Сообщений: 623

Откуда: Ukraine

Создавать темы 29-Июл-2020 20:32

[Цитировать]

Информация о фильме :
Страна: СССР
Продолжительность: 01: :16 :32
Название: Малыш и Карлсон/ Петя и Красная Шапочка/ Опять двойка
Год выпуска: 1957- 1970
Жанр: Мультфильмы, Семейный
Режиссер: Борис Степанцев, Евгений Райковский-- В ролях:
Клара Румянова, Василий Ливанов, Фаина Раневская, Сергей Филиппов
Сергей Мартинсон, Валентина Сперантова, Валентина Туманова и другие
Краткое описание:

Описание

Семилетний Малыш живет со своими родителями и старшими братом и сестрой.
Так как он самый младший в семье, то зачастую ему не с кем играть.
Однажды Малыш стоял у окна и скучал, как вдруг к нему подлетел невысокий упитанный мужчина с пропеллером
на спине, который представился Карлсоном. Карлсон решил развеселить мальчика и предложил ему немножечко пошалить.
Шалости обернулись сорванной люстрой и полным разгромом в комнате. Карлсон заметил, что это все пустяки.
Но когда в дверь постучали родители, его как ветром сдуло. Как не оправдывался Малыш, но его рассказам о Карлсоне никто не верил.
Шло время, мальчик уже и не думал увидеть человечка с пропеллером. Но в день рожденья Малыша Карлсон вернулся.
Мальчик был рад такому сюрпризу, но больше всего в этот день хотелось получить собаку, о которой он так мечтал.
Получив желанный подарок, Малыш был несказанно рад.
Карлсон даже немножко обиделся от того, что мальчик был щенку больше рад, чем ему.
Поэтому, чтобы напомнить о себе, Карлсон предложил Малышу предложил отпраздновать день рожденья у него дома на крыше.
Прогулка по крышам получилась славной.
Ведь друзья напугали жуликов и предотвратили кражу белья, а родители вызвали спасателей, чтобы снять мальчика с крыши.
После всех этих проделок было принято решение нанять няню для ребенка.
Домработница Фрекен Бок оказалась очень сварливой женщиной и очень не любила собак, но зато обожала свою кошку Матильду.
Малышу с Карлсоном ничего не оставалось, как заняться перевоспитанием новых жильцов, которое прошло довольно успешно.
Ведь Карлсон очарует любого, даже самого вредного человека.

М. инфо

Общее
Уникальный идентификатор : 206385670427776919232333312680248278752 (0x9B446F2CC5D7CD21929238244454FEE0)
Полное имя : E:\Торенты\Малыш и Карлсон\MalyshIKarlson.mkv
Формат : Matroska
Версия формата : Version 2
Размер файла : 3,60 Гбайт
Продолжительность : 1 ч. 16 м.
Режим общего битрейта : Переменный
Общий поток : 6731 Кбит/сек
Название фильма : Малыш и Карлсон_Rip1080_HDReactor.org
Дата кодирования : UTC 2011-04-23 19:00:53
Программа кодирования : mkvmerge v3.4.0 ('Rapunzel') сборка от May 15 2010 09:38:20
Библиотека кодирования : libebml v0.8.0 + libmatroska v0.9.0
Видео
Идентификатор : 1
Формат : AVC
Формат/Информация : Advanced Video Codec
Профиль формата : High@L4.1
Параметр CABAC формата : Да
Параметр ReFrames формата : 4 кадра
Идентификатор кодека : V_MPEG4/ISO/AVC
Продолжительность : 1 ч. 16 м.
Вид битрейта : Переменный
Битрейт : 6281 Кбит/сек
Максимальный битрейт : 40,0 Мбит/сек
Ширина : 1456 пикселей
Высота : 1072 пикселя
Соотношение сторон : 4:3
Режим частоты кадров : Постоянный
Частота кадров : 25,000 кадров/сек
Цветовое пространство : YUV
Субдискретизация насыщенности : 4:2:0
Битовая глубина : 8 бит
Тип развёртки : Прогрессивная
Бит/(Пиксели*Кадры) : 0.161
Размер потока : 3,29 Гбайт (91%)
Библиотека кодирования : x264 core 114 r1913 5fd3dce
Настройки программы : cabac=1 / ref=5 / deblock=1:-3:-3 / analyse=0x3:0x113 / me=umh / subme=10 / psy=1 / psy_rd=1.00:0.10 / mixed_ref=1 / me_range=32 / chroma_me=1 / trellis=2 / 8x8dct=1 / cqm=0 / deadzone=21,11 / fast_pskip=0 / chroma_qp_offset=-4 / threads=6 / sliced_threads=0 / slices=4 / nr=0 / decimate=0 / interlaced=0 / constrained_intra=0 / bframes=7 / b_pyramid=1 / b_adapt=2 / b_bias=0 / direct=1 / weightb=1 / open_gop=0 / weightp=2 / keyint=250 / keyint_min=23 / scenecut=40 / intra_refresh=0 / rc_lookahead=40 / rc=2pass / mbtree=0 / bitrate=6281 / ratetol=1.0 / qcomp=0.60 / qpmin=10 / qpmax=51 / qpstep=4 / cplxblur=20.0 / qblur=0.5 / vbv_maxrate=40000 / vbv_bufsize=30000 / nal_hrd=vbr / ip_ratio=1.40 / pb_ratio=1.30 / aq=1:0.80
Язык : Russian
Default : Нет
Forced : Нет
Аудио
Идентификатор : 2
Формат : AC-3
Формат/Информация : Audio Coding 3
Расширение режима : CM (complete main)
Параметр Endianness формата : Big
Идентификатор кодека : A_AC3
Продолжительность : 1 ч. 16 м.
Вид битрейта : Постоянный
Битрейт : 448 Кбит/сек
Каналы : 6 каналов
Расположение каналов : Front: L C R, Side: L R, LFE
Частота : 48,0 КГц
Частота кадров : 31,250 кадров/сек (1536 spf)
Метод сжатия : С потерями
Размер потока : 245 Мбайт (7%)
Заголовок : Dolby Digital Audio 5.1 448 kbps
Язык : Russian
Default : Да
Forced : Нет
Меню
00:00:00.000 : en:Малыш и Карлсон
00:18:38.880 : en:Карлсон вернулся
00:37:51.720 : en:Петя и Красная Шапочка
00:56:22.800 : en:Опять двойка
Файл:
Качество: BDRip 1080
Видео: AVC at 6281 Кбит/сек 1456x1072 (1.358) at 25.000 fps
Аудио: AC-3 at 448 Кбит/сек 6 канала(ов), 48,0 КГц
Размер файла: 3.6 Gb- - - -Время раздачи: по мере возможности -
[Профиль] [ЛС]
Показать сообщения:    
Ответить на тему

Текущее время: 30-Сен 09:53

Часовой пояс: UTC + 3



Вы не можете начинать темы
Вы не можете отвечать на сообщения
Вы не можете редактировать свои сообщения
Вы не можете удалять свои сообщения
Вы не можете голосовать в опросах
Вы не можете прикреплять файлы к сообщениям
Вы не можете скачивать файлы