Голос. Дети (2017.04.14) HDTV [H.264/1080i] (сезон 4, выпуск 9)

Ответить на тему
Статистика раздачи
Нет
   
 
Автор Сообщение

Viktor59 ®

Стаж: 7 года 7 месяца

Сообщений: 895

Откуда: Измаил

Создавать темы 14-Апр-2017 21:24

[Цитировать]

Голос. Дети (2017.04.14) HDTV [H.264/1080i] (сезон 4, выпуск 9) - Телекомпания: Первый канал HD
Жанр: ТВ-Шоу, развлекательный
Ведущий: Дмитрий Нагиев и Светлана Зейналова
Жюри: Дима Билан, Валерий Меладзе и Нюша.
Описание:
"Первый канал" представляет премьеру четвёртого сезона музыкального проекта "Голос. Дети". Детский конкурсный проект строится по тем же принципам, что и взрослый. Из тысяч заявок на участие, присланных в адрес "Первого канала", музыкальная редакция отобрала несколько сотен самых достойных. В ходе предварительных кастингов к участию в слепых прослушиваниях было допущено 100 человек. Теперь очередь фирменных "слепых прослушиваний", "поединков" и финала. Наставники команд: Дима Билан, Валерий Меладзе и Нюша. В ходе "слепых прослушиваний" наставники наберут свои команды, в каждой из которых будет по 15 юных исполнителей в возрасте от 7 до 14 лет. В "поединках" каждая команда будет разбита на тройки, и из каждой тройки в следующий этап выйдет только один певец. В "батлах" пятерка вокалистов в каждой команде поспорит за 2 места в финале. А в финале зрители путем голосования в прямом эфире назовут победителя всего проекта.
Продолжительность: ~ 01:29:27
Качество видео: HDTV
Субтитры: Отсутствуют
Видео: AVC, 1920x1080 (16:9), 25.000 fps, 8 773 Kbps (0.169 bit/pixel)
Аудио 1: AC-3, 48.0 KHz, 6 ch, 384 Kbps, CBR
Аудио 2: MP2, 48.0 KHz, 2 ch, 192 Kbps, CBR [code] Общее

Тех. инфо

Идентификатор : 1 (0x1)
Полное имя : D:\[1]\Голос\Голос. Дети. Сезон 4. Выпуск 09 (2017.04.14)_1080.ts
Формат : MPEG-TS
Размер файла : 6,15 Гбайт
Продолжительность : 1 ч. 29 м.
Режим общего битрейта : Переменный
Общий поток : 9841 Кбит/сек
Видео
Идентификатор : 1904 (0x770)
Идентификатор меню : 5640 (0x1608)
Формат : AVC
Формат/Информация : Advanced Video Codec
Профиль формата : High@L4.0
Параметр CABAC формата : Да
Параметр ReFrames формата : 3 кадра
Идентификатор кодека : 27
Продолжительность : 1 ч. 29 м.
Битрейт : 8773 Кбит/сек
Ширина : 1920 пикселей
Высота : 1080 пикселей
Соотношение сторон : 16:9
Частота кадров : 25,000 кадров/сек
Стандарт вещания : Component
Цветовое пространство : YUV
Субдискретизация насыщенности : 4:2:0
Битовая глубина : 8 бит
Тип развёртки : Чересстрочная
Порядок развёртки : Верхнее поле первое
Бит/(Пиксели*Кадры) : 0.169
Размер потока : 5,48 Гбайт (89%)
Основные цвета : BT.709
Характеристики трансфера : BT.709
Коэффициенты матрицы : BT.709
Аудио #1
Идентификатор : 2904 (0xB58)
Идентификатор меню : 5640 (0x1608)
Формат : AC-3
Формат/Информация : Audio Coding 3
Расширение режима : CM (complete main)
Параметр Endianness формата : Big
Идентификатор кодека : 6
Продолжительность : 1 ч. 29 м.
Вид битрейта : Постоянный
Битрейт : 384 Кбит/сек
Каналы : 6 каналов
Расположение каналов : Front: L C R, Side: L R, LFE
Частота : 48,0 КГц
Битовая глубина : 16 бит
Метод сжатия : С потерями
Задержка видео : -80 мс.
Размер потока : 246 Мбайт (4%)
Язык : Russian
Аудио #2
Идентификатор : 2905 (0xB59)
Идентификатор меню : 5640 (0x1608)
Формат : MPEG Audio
Версия формата : Version 1
Профиль формата : Layer 2
Идентификатор кодека : 3
Продолжительность : 1 ч. 29 м.
Вид битрейта : Постоянный
Битрейт : 192 Кбит/сек
Каналы : 2 канала
Частота : 48,0 КГц
Метод сжатия : С потерями
Задержка видео : -80 мс.
Размер потока : 123 Мбайт (2%)
Язык : Russian
Скриншоты:
[Профиль] [ЛС]
Показать сообщения:    
Ответить на тему

Текущее время: 30-Сен 09:40

Часовой пояс: UTC + 3



Вы не можете начинать темы
Вы не можете отвечать на сообщения
Вы не можете редактировать свои сообщения
Вы не можете удалять свои сообщения
Вы не можете голосовать в опросах
Вы не можете прикреплять файлы к сообщениям
Вы не можете скачивать файлы