Гнездо Кочета (2013) SATRip

Ответить на тему
 
Автор Сообщение

Viktor59 ®

Пол: Мужской

Стаж: 8 года

Сообщений: 886

Откуда: Измаил

Создавать темы 07-Дек-2013 18:41

[Цитировать]

-Гнездо Кочета (2013) SATRip- Производство: ООО "Киноконстанта", 2013
Год выпуска: 2013
Жанр: мистический детектив
Описание фильма:
«Гнездо Кочета» − это цепь загадочных происшествий и необъяснимых событий, за расследование которых берется майор полиции Сергей Кочет (Вячеслав Разбегаев). В своей работе, равно как и в жизни, Кочет привык полагаться на факты, улики и здравый смысл. Но, когда его единственная дочь Вероника внезапно впадает в кому, а в руках Кочета оказывается её альбом со странными рисунками, представление майора о реальности резко меняется – ведь спустя несколько дней те сюжеты, которые он видел в тетради дочери, начинают происходить на самом деле! Каждый карандашный рисунок становится пророчеством...
Режиссер: Илья Хотиненко
Актеры: Вячеслав Разбегаев, Роман Маякин, Анатолий Кот, Георгий Мартиросьян, Алина Бабак, Анатолий Кот, Денис Бургазлиев, Людмила Харитонова, Евгений Крылов, Наталья Людскова

Продолжительность: 01:29:04
Качество видео: SATRip
Видеокодек: Xvid
Битрейт видео: ~1500 kbit/s
Размер кадра: 704x336
Аудиокодек: MP3
Битрейт аудио: 128 kbit/s 2 канала

Mediainfo

Общее
Полное имя : E:\Gnezdo\Gnezdo.Kocheta.2013.SATRip..avi
Формат : AVI
Формат/Информация : Audio Video Interleave
Размер файла : 1,02 Гбайт
Продолжительность : 1 ч. 29 м.
Общий поток : 1633 Кбит/сек
Программа кодирования : VirtualDubMod 1.5.10.2 (build 2540/release)
Библиотека кодирования : VirtualDub build 32507/release
Видео
Идентификатор : 0
Формат : MPEG-4 Visual
Профиль формата : Advanced Simple@L5
Параметр BVOP формата : 2
Параметр QPel формата : Нет
Параметр GMC формата : Без точки перехода
Параметр матрицы формата : Default (MPEG)
Идентификатор кодека : XVID
Идентификатор кодека/Подсказка : XviD
Продолжительность : 1 ч. 29 м.
Битрейт : 1495 Кбит/сек
Ширина : 704 пикселя
Высота : 336 пикселей
Соотношение сторон : 2,095
Частота кадров : 25,000 кадров/сек
Цветовое пространство : YUV
Субдискретизация насыщенности : 4:2:0
Битовая глубина : 8 бит
Тип развёртки : Прогрессивная
Метод сжатия : С потерями
Бит/(Пиксели*Кадры) : 0.253
Размер потока : 952 Мбайт (92%)
Библиотека кодирования : XviD 64
Аудио
Идентификатор : 1
Формат : MPEG Audio
Версия формата : Version 1
Профиль формата : Layer 3
Режим : Joint stereo
Расширение режима : MS Stereo
Идентификатор кодека : 55
Идентификатор кодека/Подсказка : MP3
Продолжительность : 1 ч. 29 м.
Вид битрейта : Постоянный
Битрейт : 128 Кбит/сек
Каналы : 2 канала
Частота : 48,0 КГц
Метод сжатия : С потерями
Размер потока : 81,5 Мбайт (8%)
Выравнивание : Соединение по промежуткам
Продолжительность промежутка : 40 мс. (1,00 видеокадр)
Время предзагрузки промежутка : 504 мс.
Библиотека кодирования : LAME3.90.3ЄЄЄЄЄЄЄЄЄЄ

Доп. информация

Просьба не путать с ожидаемым сериалом Гнездо Кочета, это полнометражный художественный фильм, сериал Гнездо Кочета ещё снимается и и не выходил в прокат.
Скриншоты:
[Профиль] [ЛС]

Создавать темы 12-Дек-2013 17:06 (спустя 4 дня)

Топик был перенесен из форума DVD Rips в форум Отечественное кино

messer20080
 
Показать сообщения:    
Ответить на тему

Текущее время: 07-Мар 12:20

Часовой пояс: UTC + 3



Вы не можете начинать темы
Вы не можете отвечать на сообщения
Вы не можете редактировать свои сообщения
Вы не можете удалять свои сообщения
Вы не можете голосовать в опросах
Вы не можете прикреплять файлы к сообщениям
Вы не можете скачивать файлы