Берег надежды (2013) SATRip (1-4 серия из 4)

Ответить на тему
 
Автор Сообщение

Viktor59 ®

Пол: Мужской

Стаж: 8 года

Сообщений: 886

Откуда: Измаил

Создавать темы 07-Дек-2013 20:14

[Цитировать]

-Берег надежды (2013) SATRip (1-4 серия из 4)- Русское название: Берег надежды
Год выпуска: 2013
Производство: Россия, кинокомпания "Медиапрофсоюз"
Жанр: Мелодрама
Дата российской премьеры: 7 декабря 2013
Режиссер: Александр Кананович
Актеры: Сергей Мухин, Олеся Фаттахова, Пётр Кислов, Александр Цуркан, Илья Сотиков, Константин Балакирев, Елена Побегаева, Татьяна Гуляева, Елена Акулёнок, Павел Фартуков, Анастасия Фоминова, Владимир Тебенко, Сергей Блудов, Евгений Кушпель
Описание фильма:
Юные Надя Потапова и Алексей Зотов живут в небольшом городке на берегу моря и беззаветно любят друг друга. Но отец Надежды, директор рыбхоза, против их отношений – он прочит единственной и горячо обожаемой дочери более состоятельного жениха. И в самом деле, что может дать Наденьке простой рыбак Лешка? То ли дело Вежбицкий! Видный руководитель и компаньон Потапова, который как раз намекает, что не прочь породниться. Рассудив так, отец хитростью выдает дочь за нелюбимого, а Алексей уходит в море на поиски счастья…
Продолжительность: 00:45:23 серия
Качество видео: SATRip
Видеокодек: DivX
Битрейт видео: 1600 kbps
Размер кадра: 720x400
Аудиокодек: MP3, 2 ch
Битрейт аудио: 128 kbps

MI

Общее
Полное имя                               : D:\Раздачи\Bereg.nadezhdy.2013.SATRip.NNM-CLUB\1.serija.avi
Формат                                   : AVI
Формат/Информация                        : Audio Video Interleave
Размер файла                             : 565 Мбайт
Продолжительность                        : 45 м.
Общий поток                              : 1741 Кбит/сек
Программа кодирования                    : transcode-1.1.5
Видео
Идентификатор                            : 0
Формат                                   : MPEG-4 Visual
Параметр BVOP формата                    : Да
Параметр QPel формата                    : Нет
Параметр GMC формата                     : Без точки перехода
Параметр матрицы формата                 : Default (H.263)
Идентификатор кодека                     : DX50
Идентификатор кодека/Подсказка           : DivX 5
Продолжительность                        : 45 м.
Битрейт                                  : 1600 Кбит/сек
Ширина                                   : 720 пикселей
Высота                                   : 400 пикселей
Соотношение сторон                       : 16:9
Частота кадров                           : 25,000 кадров/сек
Цветовое пространство                    : YUV
Субдискретизация насыщенности            : 4:2:0
Битовая глубина                          : 8 бит
Тип развёртки                            : Прогрессивная
Метод сжатия                             : С потерями
Бит/(Пиксели*Кадры)                      : 0.222
Размер потока                            : 520 Мбайт (92%)
Библиотека кодирования                   : Intel(R) MPEG-4 encoder based on Intel(R) IPP 6.1 build 137.20[6.1.137.763]
Аудио
Идентификатор                            : 1
Формат                                   : MPEG Audio
Версия формата                           : Version 1
Профиль формата                          : Layer 3
Режим                                    : Joint stereo
Расширение режима                        : MS Stereo
Идентификатор кодека                     : 55
Идентификатор кодека/Подсказка           : MP3
Продолжительность                        : 45 м.
Вид битрейта                             : Постоянный
Битрейт                                  : 128 Кбит/сек
Каналы                                   : 2 канала
Частота                                  : 48,0 КГц
Метод сжатия                             : С потерями
Размер потока                            : 41,6 Мбайт (7%)
Выравнивание                             : Соединение по промежуткам
Продолжительность промежутка             : 24  мс. (0,60 видеокадр)
Время предзагрузки промежутка            : 48  мс.
Библиотека кодирования                   : LAME3.98.2
Скриншоты:
[Профиль] [ЛС]
Показать сообщения:    
Ответить на тему

Текущее время: 25-Фев 10:46

Часовой пояс: UTC + 3



Вы не можете начинать темы
Вы не можете отвечать на сообщения
Вы не можете редактировать свои сообщения
Вы не можете удалять свои сообщения
Вы не можете голосовать в опросах
Вы не можете прикреплять файлы к сообщениям
Вы не можете скачивать файлы