(Шансон) Жека (Евгений Григорьев) - В тоннеле третьего кольца - 2013, FLAC (image+.cue), lossless

Ответить на тему
 
Автор Сообщение

Viktor59 ®

Пол: Мужской

Стаж: 8 года

Сообщений: 886

Откуда: Измаил

Создавать темы 07-Дек-2013 22:02

[Цитировать]

Жека / В тоннеле третьего кольца
Жанр: Шансон
Страна-производитель диска: Россия
Год издания: 2013
Издатель (лейбл): Классик Компани
Номер по каталогу: CC CD 44/13
Страна: Россия
Аудиокодек: FLAC (*.flac)
Тип рипа: image+.cue
Битрейт аудио: lossless
Продолжительность: 01:19:48
Наличие сканов в содержимом раздачи: да

Треклист

01. В тоннеле третьего кольца (3:45)02. Пушинка (4:03)03. Между небом и землёй (3:57)04. Когда не нужно лишних слов (4:07)05. Играет Дассен (4:20)06. Кукушка (4:25)07. Стой (4:46)08. Дорога в никуда (4:08)09. Просто (4:04)10. Вдыхая друг друга (3:45)11. Синева (3:24)12. ПМЖ (4:33)13. Звон серебряный (4:38)14. Моя любовь (4:33)15. Я, как осенний лист (4:41)16. Гудбай (3:30)17. Золотко (4:45)18. Гололёд (3:51)19. Рюмка водки на столе (4:32)

Лог создания рипа (ЕАС)

Exact Audio Copy V1.0 beta 3 from 29. August 2011
Отчёт EAC об извлечении, выполненном 27. сентября 2013, 16:42
Жека / В тоннеле третьего кольца
Дисковод: ASUS DRW-24B3ST Adapter: 3 ID: 0
Режим чтения : ДостоверностьИспользование точного потока : ДаОтключение кэша аудио : ДаИспользование указателей C2 : Нет
Коррекция смещения при чтении : 6Способность читать области Lead-in и Lead-out : НетЗаполнение пропущенных сэмплов тишиной : ДаУдаление блоков с тишиной в начале и конце : НетПри вычислениях CRC использовались нулевые сэмплы : ДаИнтерфейс : Встроенный Win32-интерфейс для Win NT/2000
Выходной формат : Внутренние WAV-операцииФормат сэмплов : 44.100 Гц; 16 бит; стерео
TOC извлечённого CD
Трек | Старт | Длительность | Начальный сектор | Конечный сектор --------------------------------------------------------------------- 1 | 0:00.00 | 3:45.14 | 0 | 16888 2 | 3:45.14 | 4:02.43 | 16889 | 35081 3 | 7:47.57 | 3:56.62 | 35082 | 52843 4 | 11:44.44 | 4:07.17 | 52844 | 71385 5 | 15:51.61 | 4:19.63 | 71386 | 90873 6 | 20:11.49 | 4:25.28 | 90874 | 110776 7 | 24:37.02 | 4:45.40 | 110777 | 132191 8 | 29:22.42 | 4:08.00 | 132192 | 150791 9 | 33:30.42 | 4:03.51 | 150792 | 169067 10 | 37:34.18 | 3:44.71 | 169068 | 185938 11 | 41:19.14 | 3:24.17 | 185939 | 201255 12 | 44:43.31 | 4:33.31 | 201256 | 221761 13 | 49:16.62 | 4:37.74 | 221762 | 242610 14 | 53:54.61 | 4:33.06 | 242611 | 263091 15 | 58:27.67 | 4:41.36 | 263092 | 284202 16 | 63:09.28 | 3:29.56 | 284203 | 299933 17 | 66:39.09 | 4:44.51 | 299934 | 321284 18 | 71:23.60 | 3:51.26 | 321285 | 338635 19 | 75:15.11 | 4:32.15 | 338636 | 359050
Характеристики диапазона извлечения и сообщения об ошибках
Выбранный диапазон
Имя файла C:\vlad victorovich\Жека - В тоннеле третьего кольца.wav
Пиковый уровень 100.0 % Скорость извлечения 6.9 X Качество диапазона 100.0 % CRC теста 39927FD0 CRC копии 39927FD0 Копирование... OK
Ошибок не произошло
AccurateRip: сводка
Трек 1 отсутствует в базе данныхТрек 2 отсутствует в базе данныхТрек 3 отсутствует в базе данныхТрек 4 отсутствует в базе данныхТрек 5 отсутствует в базе данныхТрек 6 отсутствует в базе данныхТрек 7 отсутствует в базе данныхТрек 8 отсутствует в базе данныхТрек 9 отсутствует в базе данныхТрек 10 отсутствует в базе данныхТрек 11 отсутствует в базе данныхТрек 12 отсутствует в базе данныхТрек 13 отсутствует в базе данныхТрек 14 отсутствует в базе данныхТрек 15 отсутствует в базе данныхТрек 16 отсутствует в базе данныхТрек 17 отсутствует в базе данныхТрек 18 отсутствует в базе данныхТрек 19 отсутствует в базе данных
Ни одного трека нет в базе AccurateRip
Конец отчёта
==== Контрольная сумма отчёта 6044FA590879CAE41A882C9B2CF664EC2EB7F8190049C0C1A69F498CF3151BD1 ====

Лог проверки качества (Audiochecker)

AUDIOCHECKER v2.0 beta (build 457) - by Dester - opdester@freemail.hu~~~~~~~~~~~~~~~~~~~~~~~~~~~~~~~~~~-=== НЕ РЕДАКТИРУЙТЕ ЭТОТ ФАЙЛ! ===-
Путь: ...\vlad victorovich
1 -=- Жека - В тоннеле третьего кольца.wav -=- MPEG (95%)
90387812

Скриншот спектра частот (Adobe Audition)

[Профиль] [ЛС]
Показать сообщения:    
Ответить на тему

Текущее время: 02-Мар 20:02

Часовой пояс: UTC + 3



Вы не можете начинать темы
Вы не можете отвечать на сообщения
Вы не можете редактировать свои сообщения
Вы не можете удалять свои сообщения
Вы не можете голосовать в опросах
Вы не можете прикреплять файлы к сообщениям
Вы не можете скачивать файлы