Грэвити Фолз / Gravity Falls (2012) WEB-DLRip [Сезон 1, 20 серий из 20]

Ответить на тему
 
Автор Сообщение

messer20080 ®

Пол: Мужской

Стаж: 7 года 11 месяца

Сообщений: 1927

Создавать темы 07-Дек-2013 23:38

[Цитировать]

-Грэвити Фолз / Gravity Falls (2012) WEB-DLRip [Сезон 1, 20 серий из 20]- Год выпуска: 2012
Жанр: Приключения, Комедия
Язык: Русский
Описание:
Мультсериал повествует о приключениях двенадцатилетних близнецов (брата и сестры) Диппера и Мейбл. Родители отправляют их на лето в далёкий городок Грэвити Фолз, штат Орегон, к их-нему пра-дяде Стэну.
Режиссер: Джон Ошима
Персонажи: Диппер Пайнс, Мэйбл Пайнс, Стэн Пайнс, Венди Кордьюрой...
Продолжительность: 20х~00:22
Качество видео: WEB-DLRip
Перевод: Многоголосый закадровый (любительский)
Качество: WEB-DLRip
Формат: AVI
Видео: 720x400 (1.80:1), 23.976 fps, XviD build 64 ~1257 kbps avg, 0.18 bit/pixel
Аудио #1 Rus: 48 kHz, MPEG Layer 3, 2 ch, ~128.00 kbps avg (Русская дорожка)
Аудио #2 Eng: 48 kHz, MPEG Layer 3, 2 ch, ~128.00 kbps avg (Оригинал)

Премьера (мир) 15 июня 2012
Премьера (РФ) 4 января 2013

Список серий:

Список серий:
01. Ловушка на туриста / Tourist Trapped
02. Легенда о Дуркоглоте / The Legend of the Gobblewonker
03. Охотники за головами / Headhunters
04. Рука, качающая Мэйбл / The hand that rocks the Mabel
05. Неудобства / The Inconveniencing
06. Диппер против мужественности / Dipper vs Manliness
07. Двойной Диппер / Double Dipper
08. Иррациональное сокровище / Irrational treasure
09. Свинья путешественника во времени / Time traveler's pig
10. Боевые бойцы / Fight Fighters
11. Маленький Диппер / Little Dipper
12. Летневин / Summerween
13. Босс Мэйбл / Boss Mabel
14. Бездонная яма / Bottomless Pit
15. Самое дно / The Deep End
16. Ковер преткновения / Carpet Diem
17. Мальчики как звезды / Boyz Crazy
18. Поросенок до начала времен / Land Before Swine
19. Прыгуны по сновидениям / Dreamscaperers
20. Возвышение Гидеона / Gideon Rises

MediaIhfo

General
Complete name : D:\Gravity Falls S01\Gravity.Falls.S01E01.rus.eng.avi
Format : AVI
Format/Info : Audio Video Interleave
File size : 231 MiB
Duration : 21mn 8s
Overall bit rate : 1 529 Kbps
Writing application : VirtualDubMod 1.5.10.3 (build 2550/release)
Writing library : VirtualDubMod build 2550/release
Video
ID : 0
Format : MPEG-4 Visual
Format profile : Advanced Simple@L5
Format settings, BVOP : 2
Format settings, QPel : No
Format settings, GMC : No warppoints
Format settings, Matrix : Default (H.263)
Codec ID : XVID
Codec ID/Hint : XviD
Duration : 21mn 8s
Bit rate : 1 259 Kbps
Width : 720 pixels
Height : 400 pixels
Display aspect ratio : 16:9
Frame rate : 23.976 fps
Color space : YUV
Chroma subsampling : 4:2:0
Bit depth : 8 bits
Scan type : Progressive
Compression mode : Lossy
Bits/(Pixel*Frame) : 0.182
Stream size : 190 MiB (82%)
Writing library : XviD 64
Audio #1
ID : 1
Format : MPEG Audio
Format version : Version 1
Format profile : Layer 3
Mode : Joint stereo
Mode extension : MS Stereo
Codec ID : 55
Codec ID/Hint : MP3
Duration : 21mn 8s
Bit rate mode : Constant
Bit rate : 128 Kbps
Channel count : 2 channels
Sampling rate : 48.0 KHz
Compression mode : Lossy
Stream size : 19.4 MiB (8%)
Alignment : Aligned on interleaves
Interleave, duration : 42 ms (1.00 video frame)
Interleave, preload duration : 504 ms
Writing library : LAME3.99r
Encoding settings : -m j -V 4 -q 0 -lowpass 17 -b 128
Audio #2
ID : 2
Format : MPEG Audio
Format version : Version 1
Format profile : Layer 3
Codec ID : 55
Codec ID/Hint : MP3
Duration : 21mn 8s
Bit rate mode : Constant
Bit rate : 128 Kbps
Channel count : 2 channels
Sampling rate : 48.0 KHz
Compression mode : Lossy
Stream size : 19.4 MiB (8%)
Alignment : Aligned on interleaves
Interleave, duration : 42 ms (1.00 video frame)
Interleave, preload duration : 504 ms
Writing library : LAME3.99r
Encoding settings : -m s -V 4 -q 0 -lowpass 17 -b 128
[Профиль] [ЛС]
Показать сообщения:    
Ответить на тему

Текущее время: 01-Мар 12:13

Часовой пояс: UTC + 3



Вы не можете начинать темы
Вы не можете отвечать на сообщения
Вы не можете редактировать свои сообщения
Вы не можете удалять свои сообщения
Вы не можете голосовать в опросах
Вы не можете прикреплять файлы к сообщениям
Вы не можете скачивать файлы