Дом, милый дом / Home Sweet Home (Давид Морли / David Morlet) [2013, Канада, Франция, ужасы, триллер, HDRip] VO

Ответить на тему
 
Автор Сообщение

Viktor59 ®

Пол: Мужской

Стаж: 8 года

Сообщений: 886

Откуда: Измаил

Создавать темы 08-Дек-2013 09:57

[Цитировать]

Дом, милый домHome Sweet Home- Страна: Канада, Франция
Жанр: ужасы, триллер
Год выпуска: 2013
Продолжительность: 01:21:30-Перевод: Одноголосый закадровый [Zelesk]
Оригинальная аудиодорожка: английский
Субтитры: нет
Режиссер: Давид Морли / David Morlet
В ролях: Меган Хэфферн, Адам МакДональд, Шон Бенсон, Марти Адамс, Барбара Гордон, Lancelot-Описание: Фрэнк и Сара недавно переехали в провинцию, чтобы воспитать своего годовалого сына Адама подальше от хаоса и загрязнений большого города. В глубине души Сара опасается жить вдали от цивилизации, и её страх усиливается, когда однажды утром она замечает во дворе их дома постороннего человека. Фрэнк уверяет её, что все в порядке, но Сара всё равно оставляет сообщение в офис шерифа.
Тем же вечером они оставляют Адама с родителями Сары в городе, чтобы позволить себе побыть друг с другом наедине. Они и не догадываются, что злоумышленник уже проник в их дом и превратил его в ловушку, замуровав окна и отключив систему обеспечения безопасности.
И вот, когда они возвращаются домой, романтический вечер постепенно сходит на нет, уступая место живому кошмару. Начинается финальная игра в кошки-мышки.-

-

Доп. Информация

Сценарий: Давид Морли / David Morlet
Продюсер: Джордан Баркер / Jordan Barker, Борга Дортер / Borga Dorter, Douchka Papierski, Аллан Фанг / Allan Fung, Давид Морли / David Morlet
Оператор: Николас Массар / Nicolas Massart
Композитор: Томас Кузинье / Thomas Couzinier, Фредерик Кушманиан / Fr�deric Kooshmanian
Мировая премьера: 31 марта 2013
-Качество: HDRip
Контейнер: AVI
Видео: XviD, 720x304 (2.35:1), 1927 kbps, 23,976 fps, 0,367 bpp
Аудио №1: Russian: AC3 / 2.0 / 48 kHz / 224 kbps / 16 bit
Аудио №2: English: AC3 / 2.0 / 48 kHz / 224 kbps / 16 bit-

Media Info

Общее
Полное имя : G:\Dom.milyj.dom.2013.L1.HDRip_1400Mb.avi
Формат : AVI
Формат/Информация : Audio Video Interleave
Размер файла : 1,36 Гбайт
Продолжительность : 1 ч. 21 м.
Общий поток : 2389 Кбит/сек
Программа кодирования : VirtualDubMod 1.5.10.3 | www.virtualdub-fr.org || (build 2550/release)
Библиотека кодирования : VirtualDubMod build 2550/release
Видео
Идентификатор : 0
Формат : MPEG-4 Visual
Профиль формата : Advanced Simple@L5
Параметр BVOP формата : 1
Параметр QPel формата : Нет
Параметр GMC формата : Без точки перехода
Параметр матрицы формата : Выборочная
Идентификатор кодека : XVID
Идентификатор кодека/Подсказка : XviD
Продолжительность : 1 ч. 21 м.
Битрейт : 1927 Кбит/сек
Ширина : 720 пикселей
Высота : 304 пикселя
Соотношение сторон : 2,35:1
Частота кадров : 23,976 кадра/сек
Цветовое пространство : YUV
Субдискретизация насыщенности : 4:2:0
Битовая глубина : 8 бит
Тип развёртки : Прогрессивная
Метод сжатия : С потерями
Бит/(Пиксели*Кадры) : 0.367
Размер потока : 1,10 Гбайт (81%)
Библиотека кодирования : XviD 1.2.1 (UTC 2008-12-04)
Аудио #1
Идентификатор : 1
Формат : AC-3
Формат/Информация : Audio Coding 3
Расширение режима : CM (complete main)
Параметр Endianness формата : Big
Идентификатор кодека : 2000
Продолжительность : 1 ч. 21 м.
Вид битрейта : Постоянный
Битрейт : 224 Кбит/сек
Каналы : 2 канала
Расположение каналов : Front: L R
Частота : 48,0 КГц
Битовая глубина : 16 бит
Метод сжатия : С потерями
Размер потока : 131 Мбайт (9%)
Выравнивание : Разделение по промежуткам
Продолжительность промежутка : 42 мс. (1,00 видеокадр)
Время предзагрузки промежутка : 500 мс.
Аудио #2
Идентификатор : 2
Формат : AC-3
Формат/Информация : Audio Coding 3
Расширение режима : CM (complete main)
Параметр Endianness формата : Big
Идентификатор кодека : 2000
Продолжительность : 1 ч. 21 м.
Вид битрейта : Постоянный
Битрейт : 224 Кбит/сек
Каналы : 2 канала
Расположение каналов : Front: L R
Частота : 48,0 КГц
Битовая глубина : 16 бит
Метод сжатия : С потерями
Размер потока : 131 Мбайт (9%)
Выравнивание : Разделение по промежуткам
Продолжительность промежутка : 42 мс. (1,00 видеокадр)
Время предзагрузки промежутка : 500 мс.

Скриншоты

[Профиль] [ЛС]
Показать сообщения:    
Ответить на тему

Текущее время: 27-Фев 15:44

Часовой пояс: UTC + 3



Вы не можете начинать темы
Вы не можете отвечать на сообщения
Вы не можете редактировать свои сообщения
Вы не можете удалять свои сообщения
Вы не можете голосовать в опросах
Вы не можете прикреплять файлы к сообщениям
Вы не можете скачивать файлы