Тайна Сухаревой башни (Сергей Серегин, Мультфильм, фэнтези, 2013) DVDRip [H.264] (1-8 серии из 8)

Ответить на тему
 
Автор Сообщение

messer20080 ®

Пол: Мужской

Стаж: 7 года 11 месяца

Сообщений: 1927

Создавать темы 08-Дек-2013 14:24

[Цитировать]

-Тайна Сухаревой башни (2013) DVDRip [H.264] (1-8 серии из 8)- Год выпуска: 2013
Жанр: Мультфильм, фэнтези
Описание:
Волшебная сказка, сюжет которой разворачивается в историческом контексте Москвы времен Петра Первого. Один из главных героев проекта - магистр Яков Брюс, сподвижник Петра, ученый, основатель «Навигацкой» школы для юношей, Гражданин с большой буквы. При этом - фигура загадочная и мистическая. Сухарева башня, в которой находилась в 18 веке лаборатория Брюса, становится в фильме знаковым местом: с нее начинаются все приключения героев, а главное, именно в Башне находится вход в Волшебные миры.
Режиссер: Сергей Серегин, Наталья Мальгина, Софья Кравцова
Персонажи: Александр Тараньжин, Вадим Демчог, Евгения Дмитриева, Станислав Дужников, Ольга Шорохова, Прохор Чеховской, Диамид Виноградов, Дмитрий Филимонов, Дарья Мельникова, Алексей Емцов, Сергей Габриэлян, Михаил Тихонов, Алексей Иващенко

Продолжительность: 8 x ~ 00:12:58
Качество видео: DVDRip
Видеокодек: AVC
Битрейт видео: ~2006 Кбит/сек
Размер кадра: 720x572@1024x572
Частота кадров : 25,000 кадров/сек
Аудиокодек: AC3 2.0
Битрейт аудио: 192 Кбит/сек

Список серий:

01. Черный Роджер
02. Эликсир жизни
03. Наряд Принцессы ночи
04. Охота на тень
05. Узурпатор времени
06. Морской узел
07. Сон государев
08. Время назад

MI всех серий одинаков:

Общее
Уникальный идентификатор : 240151473215362679011789586533522080883 (0xB4AB7DC8D033B82F970FD1313FB00473)
Полное имя : Тайна Сухаревой башни\01.mkv
Формат : Matroska
Версия формата : Version 4 / Version 2
Размер файла : 207 Мбайт
Продолжительность : 13 м.
Общий поток : 2198 Кбит/сек
Дата кодирования : UTC 2013-10-25 18:29:37
Программа кодирования : mkvmerge v6.5.0 ('Isn't she lovely') built on Oct 20 2013 12:50:05
Библиотека кодирования : libebml v1.3.0 + libmatroska v1.4.1
Видео
Идентификатор : 1
Формат : AVC
Формат/Информация : Advanced Video Codec
Профиль формата : High@L4.1
Параметр CABAC формата : Да
Параметр ReFrames формата : 6 кадров
Идентификатор кодека : V_MPEG4/ISO/AVC
Продолжительность : 13 м.
Битрейт : 2006 Кбит/сек
Ширина : 720 пикселей
Высота : 572 пикселя
Соотношение сторон : 16:9
Режим частоты кадров : Постоянный
Частота кадров : 25,000 кадров/сек
Цветовое пространство : YUV
Субдискретизация насыщенности : 4:2:0
Битовая глубина : 8 бит
Тип развёртки : Прогрессивная
Бит/(Пиксели*Кадры) : 0.195
Размер потока : 185 Мбайт (89%)
Библиотека кодирования : x264 core 138 r2356 a1d3d17
Настройки программы : cabac=1 / ref=6 / deblock=1:-2:-1 / analyse=0x3:0x113 / me=umh / subme=10 / psy=1 / psy_rd=1.00:0.05 / mixed_ref=1 / me_range=32 / chroma_me=1 / trellis=2 / 8x8dct=1 / cqm=0 / deadzone=21,11 / fast_pskip=0 / chroma_qp_offset=-3 / threads=9 / lookahead_threads=1 / sliced_threads=0 / nr=0 / decimate=0 / interlaced=0 / bluray_compat=0 / constrained_intra=0 / bframes=8 / b_pyramid=2 / b_adapt=2 / b_bias=0 / direct=3 / weightb=1 / open_gop=0 / weightp=2 / keyint=250 / keyint_min=25 / scenecut=40 / intra_refresh=0 / rc=2pass / mbtree=0 / bitrate=2006 / ratetol=1.0 / qcomp=0.60 / qpmin=0 / qpmax=69 / qpstep=4 / cplxblur=20.0 / qblur=0.5 / ip_ratio=1.40 / pb_ratio=1.30 / aq=1:1.00
Язык : Russian
Default : Да
Forced : Нет
Аудио
Идентификатор : 2
Формат : AC-3
Формат/Информация : Audio Coding 3
Расширение режима : CM (complete main)
Параметр Endianness формата : Big
Идентификатор кодека : A_AC3
Продолжительность : 13 м.
Вид битрейта : Постоянный
Битрейт : 192 Кбит/сек
Каналы : 2 канала
Расположение каналов : Front: L R
Частота : 48,0 КГц
Битовая глубина : 16 бит
Метод сжатия : С потерями
Размер потока : 18,1 Мбайт (9%)
Язык : Russian
Default : Да
Forced : Нет
Скриншоты:

Время раздачи: 02.00х18.00 до 5 скачавших
[Профиль] [ЛС]
Показать сообщения:    
Ответить на тему

Текущее время: 26-Фев 21:06

Часовой пояс: UTC + 3



Вы не можете начинать темы
Вы не можете отвечать на сообщения
Вы не можете редактировать свои сообщения
Вы не можете удалять свои сообщения
Вы не можете голосовать в опросах
Вы не можете прикреплять файлы к сообщениям
Вы не можете скачивать файлы