Робинзон Крузо: Предводитель пиратов / Selkirk, el verdadero Robinson Crusoe (Уолтер Турнье, Приключения, Кукольный, Семейный, 2011) DVDRip

Ответить на тему
 
Автор Сообщение

messer20080 ®

Пол: Мужской

Стаж: 7 года 11 месяца

Сообщений: 1927

Создавать темы 08-Дек-2013 14:38

[Цитировать]

-Робинзон Крузо: Предводитель пиратов / Selkirk, el verdadero Robinson Crusoe (2011) DVDRip- Год выпуска: 2011
Жанр: Приключения, Кукольный, Семейный
Описание:
Селкирк — непокорный, эгоистичный пират, штурман на английском корабле. Он плавает по Южным морям в поисках сокровищ. После того как Капитан Буллок оставляет его на необитаемом острове и ему приходится учиться выживать в одиночку, его взгляды на мир меняются.
Режиссер: Уолтер Турнье

Продолжительность: 01:16:06
Качество видео: DVDRip
Перевод: Дублированный (лицензия)
Видеокодек: Xvid
Битрейт видео: ~2 110 Kbps
Размер кадра: 720x400
Частота кадров: 25.000 fps
Аудиокодек: AC3, 6 ch
Битрейт аудио: 448 Kbps

MediaInfo

General
Complete name : D:\Robinzon.Predvoditel.Piratov.2011.D.DVDRip.1400Mb.avi
Format : AVI
Format/Info : Audio Video Interleave
File size : 1.37 GiB
Duration : 1h 16mn
Overall bit rate : 2 568 Kbps
Writing application : VirtualDubMod 1.5.10.3 | www.virtualdub-fr.org || (build 2550/release)
Writing library : VirtualDubMod build 2550/release
Video
ID : 0
Format : MPEG-4 Visual
Format profile : Advanced Simple@L5
Format settings, BVOP : 2
Format settings, QPel : No
Format settings, GMC : No warppoints
Format settings, Matrix : Default (MPEG)
Codec ID : XVID
Codec ID/Hint : XviD
Duration : 1h 16mn
Bit rate : 2 110 Kbps
Width : 720 pixels
Height : 400 pixels
Display aspect ratio : 16:9
Frame rate : 25.000 fps
Color space : YUV
Chroma subsampling : 4:2:0
Bit depth : 8 bits
Scan type : Progressive
Compression mode : Lossy
Bits/(Pixel*Frame) : 0.293
Stream size : 1.12 GiB (82%)
Writing library : XviD 1.2.1 (UTC 2008-12-04)
Audio
ID : 1
Format : AC-3
Format/Info : Audio Coding 3
Mode extension : CM (complete main)
Format settings, Endianness : Big
Codec ID : 2000
Duration : 1h 16mn
Bit rate mode : Constant
Bit rate : 448 Kbps
Channel count : 6 channels
Channel positions : Front: L C R, Side: L R, LFE
Sampling rate : 48.0 KHz
Bit depth : 16 bits
Compression mode : Lossy
Stream size : 244 MiB (17%)
Alignment : Split accross interleaves
Interleave, duration : 40 ms (1.00 video frame)
Interleave, preload duration : 500 ms
Время раздачи: до первых 5 скачавших
[Профиль] [ЛС]
Показать сообщения:    
Ответить на тему

Текущее время: 26-Фев 01:41

Часовой пояс: UTC + 3



Вы не можете начинать темы
Вы не можете отвечать на сообщения
Вы не можете редактировать свои сообщения
Вы не можете удалять свои сообщения
Вы не можете голосовать в опросах
Вы не можете прикреплять файлы к сообщениям
Вы не можете скачивать файлы