Место встречи изменить нельзя (Станислав Говорухин) [1979, детектив, криминальная драма, DVDRip]

Ответить на тему
 
Автор Сообщение

messer20080 ®

Пол: Мужской

Стаж: 7 года 11 месяца

Сообщений: 1927

Создавать темы 10-Дек-2013 20:55

[Цитировать]

Место встречи изменить нельзя (5 серий)
Название: Место встречи изменить нельзя
Жанр: Детектив, боевик, криминальная драма
Выпущено: СССР
Студия: Одесская киностудия
Год выпуска: 1979
Продолжительность: 01:06:44 + 01:10:36 + 01:06:21 + 01:14:28 + 01:24:44
Режиссер: Станислав Говорухин
В ролях: Владимир Высоцкий, Владимир Конкин, Наталья Данилова (озвучание - Наталья Рычагова), Сергей Юрский, Юнона Карева (озвучание - Антонина Кончакова), Евгений Шутов, Лев Перфилов, Александр Милютин, Андрей Градов, Алексей Миронов, Всеволод Абдулов, Людмила Давыдова, Светлана Светличная, Зиновий Гердт, Наталья Фатеева, Евгений Леонов-Гладышев, Нина Корниенко, Павел Махотин, Армен Джигарханян, Александр Белявский, Виктор Павлов, Леонид Куравлёв, Евгений Евстигнеев, Екатерина Градова, Валерия Заклунная, Лариса Удовиченко, Иван Бортник, Станислав Садальский, Владлен Паулус, Олег Савосин, Владимир Жариков, Николай Слесарев, Наталья Петрова, Нина Озорнина, Татьяна Ткач, Наталия Ченчик, Александр Абдулов, Наталья Крачковская, Валентин Кулик, Сергей Мазаев, Лариса Гузеева, Наталья Дарьялова, Владимир Туманов, Владимир Гольдман, Генрих Осташевский, Валерий Янклович, Миша Епифанцев, Зоя Василькова, Аркадий Свидерский, Сергей Милованов, Рудольф Мухин, Евгений Стежко, Игорь Старков, Олег Федулов
Описание: Только что закончилась Великая Отечественная война. Демобилизовавшийся офицер-разведчик Владимир Шарапов начинает работать в Московском уголовном розыске, в отделе по борьбе с бандитизмом, руководит которым известный всем московским ворам и бандитам Глеб Жеглов. Одно из первых дел, к расследованию которого подключается Володя, - убийство Ларисы Груздевой, на первый взгляд показавшееся простым. Однако, позже выясняется, что оно тесно связано с делом таинственной и неуловимой банды "Черная кошка", за которой давно (и пока безуспешно) гоняется весь МУР...
Доп. информация: По роману братьев Вайнеров "Эра милосердия". Одна из последних и самых ярких ролей в кино Владимира Высоцкого.
Сценарий: Аркадий Вайнер, Георгий Вайнер
Оператор: Леонид Бурлака
Художники: Валентин Гидулянов, Михаил Безчастнов
Композитор: Евгений Геворгян
Награды: почетная грамота министра внутренних дел СССР (1979); специальный диплом и приз жюри (Владимир Высоцкий, посмертно) на ВКФ в Вильнюсе (1981); Государственная премия СССР за 1987 год за создание образа Жеглова (Владимир Высоцкий, посмертно)
Ограничения на просмотр: детям до 12 лет просмотр фильма разрешен в сопровождении родителей

Интересные факты

  • В отличие от книги братьев Вайнеров, где Шарапов после взятия банды узнаёт, что Варя погибла, финал фильма совершенно иной - что называется "хэппи энд".
  • Это один из немногих фильмов, где Высоцкий не поёт свои песни. Для фильма он написал песню «О конце войны», но режиссер отказался включать её в фильм - так же, как и предложенную «Балладу о детстве». Когда же Станислав Говорухин предложил Высоцкому спеть отрывок из романса Александра Вертинского «Лиловый негр», Высоцкий ответил: «Если ты не хочешь, чтобы я спел свое, не буду петь и Вертинского», - однако, поддавшись на уговоры, в одной из сцен, играя на пианино, пропевает несколько строк из «Лилового негра», но каждый раз перебивает их репликами, обращенными к Шарапову. Кстати, эта сцена единственная в фильме, где герой Высоцкого показан в парадной форме капитана НКВД.
  • В книге (и, соответственно, в фильме) использованы материалы реально существовавших уголовных дел. В первой серии Жеглов рассказывает Шарапову об одном случае из своей практики: убийство и инсценировка бандитского нападения. Такое преступление действительно было в Москве — дело бывшего зампреда военного трибунала войск НКВД Крылова, которое расследовал один из прототипов Шарапова, Владимир Павлович Арапов. Имеет свою реальную основу и дело Груздева: кандидат медицинских наук Евгений Ильич Миркин в 1944 году был обвинён в убийстве своей жены и приговорен к смертной казни, однако, работники МУРа сумели доказать его невиновность.
  • Члены настоящей преступной группировки (которую сотрудники МУРа в реальности называли «Банда высокого блондина»), ставшей прототипом банды «Черная кошка», жили в подмосковном Красногорске. Они работали на Красногорском механическом заводе, а в свободное время промышляли грабежами сберкасс. В ликвидации этой банды принимал участие легендарный сыщик Игорь Скорин.
  • Вопреки договору между Гостелерадио СССР и Одесской киностудией, фильм получился не из семи серий, а из пяти. Две «лишние» серии сократили перемонтажом по требованию Гостелерадио. Среди удаленных сцен оказались несколько фрагментов на фронте, объясняющих причины дружеских отношений Шарапова и Левченко. В первоначальном варианте большой кусок на фронте был показан сразу же после немой сцены, когда Шарапов узнал Левченко, и как воспоминания Шарапова при их разговоре с Левченко ночью.
  • Роль Петра Соловьева - Петюни, сотрудника МУРа, который сидел в засаде и испугался Фокса, - сыграл один из ближайших друзей Высоцкого, Всеволод Абдулов. Осенью 1977 года Абдулов, возвращаясь на своей машине со съёмок в Баку, вблизи города Ефремова попал в серьезную аварию - под автомобилем взорвалось переднее колесо, и машина перевернулась 6 раз. С тяжелейшими травмами и сотрясением мозга актёра доставили в больницу, 21 день он не приходил в сознание. Потом наступило улучшение, но авария сильно сказалась на памяти актёра. Всеволод уже не мог играть, забывал текст роли. На съемки к Говорухину Абдулов приехал практически сразу после больницы. Ему было очень трудно, он, к примеру, не мог запомнить, что Высоцкого по сценарию зовут Глеб. И Высоцкий стал для друга суфлером, постоянно подсказывал реплики, по многу раз репетировал с ним каждую сцену, где был занят Абдулов.
  • В ресторане, где брали Фокса, за одним столиком с Жегловым сидят Наталья Дарьялова - дочь писателя Аркадия Вайнера, и Владимир Туманов - сын друга Высоцкого, Вадима Туманова; Андрей Градов (Тараскин) танцует с Ларисой Гузеевой, а на заднем плане, среди музыкантов, на саксофоне играет Сергей Мазаев. Он же играет в составе оркестра в последней серии, в кинотеатре, перед показом фильма (песня «Неудачное свидание»).
  • В титрах фильма указан сын Марины Влади и Робера Оссейна - Пьер Оссейн, - присутствовавший на съёмках, хотя сам Пьер, просматривая фильм, так и не смог найти себя. Вероятно, сцена с его участием была вырезана.
  • В роли Галины Желтовской снялась первая жена Станислава Говорухина - Юнона Карева.
  • Матчи чемпионата СССР по футболу 1945 года "Зенит - Спартак" и "ЦДКА - Динамо" (в фильме не уточняется, какое именно — московское, ленинградское, киевское, минское или тбилисское) на самом деле проходили в разные дни. «Зенит» и «Спартак» встречались 5 сентября (3:1), в тот же день играли московские «Крылья Советов» и «Динамо» (1:2). А в дни, когда ЦДКА со счётом 3:1 обыграл «Динамо» (5 августа - киевлян, а 14 сентября — тбилисцев), других матчей не было вовсе.
  • Роль администратора Большого театра сыграл Валерий Янклович - бывший главный администратор Театра на Таганке, находившийся рядом с Высоцким последние семь лет его жизни в качестве организатора поездок и концертов.
  • В Википедии написано, что в этом фильме снималась Лариса Голубкина (якобы она сыграла стрелочницу на железнодорожном переезде, где машина с бандитами оторвалась от МУРовцев). На самом деле это актриса И.Зюскина
Качество видео: DVDRip
Формат видео: AVI
Видео:
1-4 серии - 640x480 (1.33:1), 25 fps, XviD 64, 1531 kbps avg, 0.20 bit/pixel
5 серия - 640x480 (1.33:1), 25 fps, XviD 64, 1481 kbps avg, 0.19 bit/pixel
Аудио: 48 kHz, AC3 Dolby Digital, 2/0 (L,R) ch, 192 kbps

MI

Полное имя : Mesto vstrechi\Part 1.avi
Формат : AVI
Формат/Информация : Audio Video Interleave
Размер файла : 827 Мбайт
Продолжительность : 1 ч. 6 м.
Общий поток : 1733 Кбит/сек
Программа кодирования : VirtualDubMod 1.5.10.3 (build 2550/release)
Библиотека кодирования : VirtualDubMod build 2550/release
Видео
Идентификатор : 0
Формат : MPEG-4 Visual
Профиль формата : Advanced Simple@L5
Параметр BVOP формата : 2
Параметр QPel формата : Нет
Параметр GMC формата : Без точки перехода
Параметр матрицы формата : Выборочная
Идентификатор кодека : XVID
Идентификатор кодека/Подсказка : XviD
Продолжительность : 1 ч. 6 м.
Битрейт : 1531 Кбит/сек
Ширина : 640 пикселей
Высота : 480 пикселей
Соотношение сторон : 4:3
Частота кадров : 25,000 кадров/сек
Цветовое пространство : YUV
Субдискретизация насыщенности : 4:2:0
Битовая глубина : 8 бит
Тип развёртки : Прогрессивная
Метод сжатия : С потерями
Бит/(Пиксели*Кадры) : 0.199
Размер потока : 731 Мбайт (88%)
Библиотека кодирования : XviD 64
Аудио
Идентификатор : 1
Формат : AC-3
Формат/Информация : Audio Coding 3
Расширение режима : CM (complete main)
Параметр Endianness формата : Big
Идентификатор кодека : 2000
Продолжительность : 1 ч. 6 м.
Вид битрейта : Постоянный
Битрейт : 192 Кбит/сек
Каналы : 2 канала
Расположение каналов : Front: L R
Частота : 48,0 КГц
Битовая глубина : 16 бит
Метод сжатия : С потерями
Размер потока : 91,7 Мбайт (11%)
Выравнивание : Разделение по промежуткам
Продолжительность промежутка : 40 мс. (1,00 видеокадр)
Время предзагрузки промежутка : 500 мс.
Полное имя : Mesto vstrechi\Part 2.avi
Формат : AVI
Формат/Информация : Audio Video Interleave
Размер файла : 875 Мбайт
Продолжительность : 1 ч. 10 м.
Общий поток : 1733 Кбит/сек
Программа кодирования : VirtualDubMod 1.5.10.3 (build 2550/release)
Библиотека кодирования : VirtualDubMod build 2550/release
Видео
Идентификатор : 0
Формат : MPEG-4 Visual
Профиль формата : Advanced Simple@L5
Параметр BVOP формата : 2
Параметр QPel формата : Нет
Параметр GMC формата : Без точки перехода
Параметр матрицы формата : Выборочная
Идентификатор кодека : XVID
Идентификатор кодека/Подсказка : XviD
Продолжительность : 1 ч. 10 м.
Битрейт : 1531 Кбит/сек
Ширина : 640 пикселей
Высота : 480 пикселей
Соотношение сторон : 4:3
Частота кадров : 25,000 кадров/сек
Цветовое пространство : YUV
Субдискретизация насыщенности : 4:2:0
Битовая глубина : 8 бит
Тип развёртки : Прогрессивная
Метод сжатия : С потерями
Бит/(Пиксели*Кадры) : 0.199
Размер потока : 773 Мбайт (88%)
Библиотека кодирования : XviD 64
Аудио
Идентификатор : 1
Формат : AC-3
Формат/Информация : Audio Coding 3
Расширение режима : CM (complete main)
Параметр Endianness формата : Big
Идентификатор кодека : 2000
Продолжительность : 1 ч. 10 м.
Вид битрейта : Постоянный
Битрейт : 192 Кбит/сек
Каналы : 2 канала
Расположение каналов : Front: L R
Частота : 48,0 КГц
Битовая глубина : 16 бит
Метод сжатия : С потерями
Размер потока : 97,0 Мбайт (11%)
Выравнивание : Разделение по промежуткам
Продолжительность промежутка : 40 мс. (1,00 видеокадр)
Время предзагрузки промежутка : 500 мс.
Полное имя : Mesto vstrechi\Part 3.avi
Формат : AVI
Формат/Информация : Audio Video Interleave
Размер файла : 822 Мбайт
Продолжительность : 1 ч. 6 м.
Общий поток : 1733 Кбит/сек
Программа кодирования : VirtualDubMod 1.5.10.3 (build 2550/release)
Библиотека кодирования : VirtualDubMod build 2550/release
Видео
Идентификатор : 0
Формат : MPEG-4 Visual
Профиль формата : Advanced Simple@L5
Параметр BVOP формата : 2
Параметр QPel формата : Нет
Параметр GMC формата : Без точки перехода
Параметр матрицы формата : Выборочная
Идентификатор кодека : XVID
Идентификатор кодека/Подсказка : XviD
Продолжительность : 1 ч. 6 м.
Битрейт : 1531 Кбит/сек
Ширина : 640 пикселей
Высота : 480 пикселей
Соотношение сторон : 4:3
Частота кадров : 25,000 кадров/сек
Цветовое пространство : YUV
Субдискретизация насыщенности : 4:2:0
Битовая глубина : 8 бит
Тип развёртки : Прогрессивная
Метод сжатия : С потерями
Бит/(Пиксели*Кадры) : 0.199
Размер потока : 727 Мбайт (88%)
Библиотека кодирования : XviD 64
Аудио
Идентификатор : 1
Формат : AC-3
Формат/Информация : Audio Coding 3
Расширение режима : CM (complete main)
Параметр Endianness формата : Big
Идентификатор кодека : 2000
Продолжительность : 1 ч. 6 м.
Вид битрейта : Постоянный
Битрейт : 192 Кбит/сек
Каналы : 2 канала
Расположение каналов : Front: L R
Частота : 48,0 КГц
Битовая глубина : 16 бит
Метод сжатия : С потерями
Задержка видео : 80 мс.
Размер потока : 91,1 Мбайт (11%)
Выравнивание : Разделение по промежуткам
Продолжительность промежутка : 40 мс. (1,00 видеокадр)
Время предзагрузки промежутка : 500 мс.
Полное имя : Mesto vstrechi\Part 4.avi
Формат : AVI
Формат/Информация : Audio Video Interleave
Размер файла : 923 Мбайт
Продолжительность : 1 ч. 14 м.
Общий поток : 1733 Кбит/сек
Программа кодирования : VirtualDubMod 1.5.10.3 (build 2550/release)
Библиотека кодирования : VirtualDubMod build 2550/release
Видео
Идентификатор : 0
Формат : MPEG-4 Visual
Профиль формата : Advanced Simple@L5
Параметр BVOP формата : 2
Параметр QPel формата : Нет
Параметр GMC формата : Без точки перехода
Параметр матрицы формата : Выборочная
Идентификатор кодека : XVID
Идентификатор кодека/Подсказка : XviD
Продолжительность : 1 ч. 14 м.
Битрейт : 1531 Кбит/сек
Ширина : 640 пикселей
Высота : 480 пикселей
Соотношение сторон : 4:3
Частота кадров : 25,000 кадров/сек
Цветовое пространство : YUV
Субдискретизация насыщенности : 4:2:0
Битовая глубина : 8 бит
Тип развёртки : Прогрессивная
Метод сжатия : С потерями
Бит/(Пиксели*Кадры) : 0.199
Размер потока : 816 Мбайт (88%)
Библиотека кодирования : XviD 64
Аудио
Идентификатор : 1
Формат : AC-3
Формат/Информация : Audio Coding 3
Расширение режима : CM (complete main)
Параметр Endianness формата : Big
Идентификатор кодека : 2000
Продолжительность : 1 ч. 14 м.
Вид битрейта : Постоянный
Битрейт : 192 Кбит/сек
Каналы : 2 канала
Расположение каналов : Front: L R
Частота : 48,0 КГц
Битовая глубина : 16 бит
Метод сжатия : С потерями
Размер потока : 102 Мбайт (11%)
Выравнивание : Разделение по промежуткам
Продолжительность промежутка : 40 мс. (1,00 видеокадр)
Время предзагрузки промежутка : 500 мс.
Полное имя : Mesto vstrechi\Part 5.avi
Формат : AVI
Формат/Информация : Audio Video Interleave
Размер файла : 1020 Мбайт
Продолжительность : 1 ч. 24 м.
Общий поток : 1683 Кбит/сек
Программа кодирования : VirtualDubMod 1.5.10.3 (build 2550/release)
Библиотека кодирования : VirtualDubMod build 2550/release
Видео
Идентификатор : 0
Формат : MPEG-4 Visual
Профиль формата : Advanced Simple@L5
Параметр BVOP формата : 2
Параметр QPel формата : Нет
Параметр GMC формата : Без точки перехода
Параметр матрицы формата : Выборочная
Идентификатор кодека : XVID
Идентификатор кодека/Подсказка : XviD
Продолжительность : 1 ч. 24 м.
Битрейт : 1481 Кбит/сек
Ширина : 640 пикселей
Высота : 480 пикселей
Соотношение сторон : 4:3
Частота кадров : 25,000 кадров/сек
Цветовое пространство : YUV
Субдискретизация насыщенности : 4:2:0
Битовая глубина : 8 бит
Тип развёртки : Прогрессивная
Метод сжатия : С потерями
Бит/(Пиксели*Кадры) : 0.193
Размер потока : 898 Мбайт (88%)
Библиотека кодирования : XviD 64
Аудио
Идентификатор : 1
Формат : AC-3
Формат/Информация : Audio Coding 3
Расширение режима : CM (complete main)
Параметр Endianness формата : Big
Идентификатор кодека : 2000
Продолжительность : 1 ч. 24 м.
Вид битрейта : Постоянный
Битрейт : 192 Кбит/сек
Каналы : 2 канала
Расположение каналов : Front: L R
Частота : 48,0 КГц
Битовая глубина : 16 бит
Метод сжатия : С потерями
Размер потока : 116 Мбайт (11%)
Выравнивание : Разделение по промежуткам
Продолжительность промежутка : 40 мс. (1,00 видеокадр)
Время предзагрузки промежутка : 500 мс.

Скриншоты названия


Скриншоты




[Профиль] [ЛС]
Показать сообщения:    
Ответить на тему

Текущее время: 28-Фев 07:50

Часовой пояс: UTC + 3



Вы не можете начинать темы
Вы не можете отвечать на сообщения
Вы не можете редактировать свои сообщения
Вы не можете удалять свои сообщения
Вы не можете голосовать в опросах
Вы не можете прикреплять файлы к сообщениям
Вы не можете скачивать файлы