Добровольцы (Юрий Егоров, драма, военный)(1958) DVDRip

Ответить на тему
 
Автор Сообщение

messer20080 ®

Пол: Мужской

Стаж: 7 года 11 месяца

Сообщений: 1927

Создавать темы 12-Дек-2013 15:48

[Цитировать]

-Добровольцы (1958) DVDRip- Название: Добровольцы
Год выпуска: 1958
Страна: СССР / К/ст им. М.Горького
Жанр: драма, военный-
Премьера:
20 февраля 1961

Режиссер: Юрий Егоров
Актеры: Леонид Быков, Михаил Ульянов, Пётр Щербаков, Элина Быстрицкая, Людмила Крылова, Микаэла Дроздовская, Сергей Плотников, Виктор Чекмарёв, Никифор Колофидин, Александр Сашин-Никольский

Описание фильма:
Вместе с сотнями других юношей и девушек на строительство первой очереди Московского метрополитена пришли комсомольцы Николай Кайтанов, Слава Уфимцев, Леша Акишин, девчата Леля и Маша. Их объединяет романтика подвига, стремление быть всегда на самом трудном и опасном участке. Мелькают дни, наполненные увлеченной работой, ставятся первые рекорды, переживаются первые утраты. Проходят годы. Жизнь далеко разбросала друзей. Начинается Великая Отечественная война. Снова комсомольцы-добровольцы на самых опасных рубежах....
По одноименному роману в стихах Евгения Долматовского
-Продолжительность: 01:31:05
Качество видео: DVDRip
Формат: AVI
Видеокодек: DivX
Битрейт видео: ~1757 kbps avg, 25,000 fps, 0.179 bit/pixel
Размер кадра: 720x544 (4:3)
Аудиокодек: AC3
Аудио: Русский, 48.0 kHz, AC3 , 6 ch ~384 Kbps avg
Субтитры: отсутствуют

MediaInfo:

Формат : AVI
Формат/Информация : Audio Video Interleave
Размер файла : 1,37 Гбайт
Продолжительность : 1 ч. 31 м.
Общий поток : 2148 Кбит/сек
Программа кодирования : VirtualDubMod 1.5.4.1 (build 2178/release)
Библиотека кодирования : VirtualDubMod build 2178/release
Видео
Идентификатор : 0
Формат : MPEG-4 Visual
Параметр BVOP формата : 1
Параметр QPel формата : Нет
Параметр GMC формата : Без точки перехода
Параметр матрицы формата : Default (H.263)
Режим смешивания : Сжатый битовый поток
Идентификатор кодека : DX50
Идентификатор кодека/Подсказка : DivX 5
Продолжительность : 1 ч. 31 м.
Битрейт : 1757 Кбит/сек
Ширина : 720 пикселей
Высота : 544 пикселя
Соотношение сторон : 4:3
Частота кадров : 25,000 кадров/сек
Цветовое пространство : YUV
Субдискретизация насыщенности : 4:2:0
Битовая глубина : 8 бит
Тип развёртки : Прогрессивная
Метод сжатия : С потерями
Бит/(Пиксели*Кадры) : 0.179
Размер потока : 1,12 Гбайт (82%)
Библиотека кодирования : DivX 6.8.5 (UTC 2009-08-20)
Аудио
Идентификатор : 1
Формат : AC-3
Формат/Информация : Audio Coding 3
Расширение режима : CM (complete main)
Параметр Endianness формата : Big
Идентификатор кодека : 2000
Продолжительность : 1 ч. 31 м.
Вид битрейта : Постоянный
Битрейт : 384 Кбит/сек
Каналы : 6 каналов
Расположение каналов : Front: L C R, Side: L R, LFE
Частота : 48,0 КГц
Битовая глубина : 16 бит
Метод сжатия : С потерями
Размер потока : 250 Мбайт (18%)
Выравнивание : Разделение по промежуткам
Продолжительность промежутка : 96 мс. (2,40 видеокадра)
Время предзагрузки промежутка : 96 мс.
Скриншоты:
[Профиль] [ЛС]
Показать сообщения:    
Ответить на тему

Текущее время: 28-Фев 00:46

Часовой пояс: UTC + 3



Вы не можете начинать темы
Вы не можете отвечать на сообщения
Вы не можете редактировать свои сообщения
Вы не можете удалять свои сообщения
Вы не можете голосовать в опросах
Вы не можете прикреплять файлы к сообщениям
Вы не можете скачивать файлы