BBC. История науки / The Story of Science (2010) HDTVRip [H.264/720p] [1-6 серия из 6]

Ответить на тему
 
Автор Сообщение

messer20080 ®

Пол: Мужской

Стаж: 7 года 11 месяца

Сообщений: 1927

Создавать темы 12-Дек-2013 21:17

[Цитировать]

-BBC. История науки / The Story of Science (2010) HDTVRip [H.264/720p] [1-6 серия из 6]- Режиссер / Телекомпания: Наоми Ло, Джереми Тернер / BBC
Страна: Великобритания
Год выпуска: 2010
Жанр: Документальный, научно-познавательный, исследование, астрономия, география
Описание: В течение тысяч лет мы задумывались о самом главном вопросе существования. Кто мы? Что такое мир? Как мы сюда попали? Поиски ответов на эти вопросы - это "История науки". Из всех достижений человечества - наука имеет самое большее влияние на нас. На то, как мы видим себя и наш мир. Каждую неделю, журналист Майкл Мосли, ищет следы часто непредсказуемые путей. Он воссоздаст эксперимент известного алхимика, последует по стопам Галилея, и отдаст себя в руки гипнотизера. Майкл изучает, как наука изменила то, как мы видим себя, и наше восприятие мира. Это история о мужестве и страхе, надеждах и катастрофах, настойчивости и успехе. Она переплетает великие силы истории - революции, географические открытия и художественные направления с практическими, гениальными изобретениями, и упорством экспериментаторов и ученых. Это история о том, как история влилась в науку, а наука в историю, и как идеи, которые возникали, сотворили современный мир.
Продолжительность: 6x 00:59:30
Перевод: Одноголосый закадровый (профессиональный, студия SDI Media)
Видеокодек: MPEG-4 AVC/H.264
Битрейт видео: ~4 000 Кбит/с
Размер кадра: 1280 x 720
Качество видео: HDTVRip [720p]
Аудио:
1. [русский] MP3, 2.0 ch, 128 Кбит/с
2. [русский] AC3, 2.0 ch, 192 Кбит/с
Содержание:

Серия 1. Что там, за пределами Земли? / What Is Out There?

Вопрос, который волнует человечество с тех пор, как мы взглянули на небо - что там за пределами Земли? С начала времен нас зачаровывало величие и красота бездонного неба. Звездное небо снизу выглядит таким неподвижным, умиротворяющим... Сейчас нам уже трудно представить, что на протяжении веков человечество представляло себе космос совершенно по другому. Сегодня рассказ о том, как люди открыли всё то, что нам известно о Вселенной.Скриншоты

Серия 2. Из чего состоит наш мир? / What is the World Made of?

Сегодня мы отправляемся на поиски красоты и порядка. Попытки понять природу материи, из которой состоит мир вокруг нас, кажутся нам задачей высоконаучной, невыполнимой для непосвященных. Но на протяжении веков этот поиск набрал огромную силу и кардинально изменил наш мир. Первыми, кто начал систематическое исследование состава веществ, были - алхимики. В конце средневековья их было множество, они охраняли свои знания с помощью кодов и шифров.Скриншоты

Серия 3. Как мы появились? / How Did We Get Here?

Из религиозных текстов и легенд о сотворении мира следовало, что человек - венец божественного творения. Но развитие науки привело к радикально новому подходу к вопросу о том, как мы появилисьСкриншоты

Серия 4. Можем ли мы обладать неограниченной энергией? / Can We Have Unlimited Power?

Обладание неограниченным источником энергии - давнее стремление человечества. Как наука искала ответ на вопросы: что такое энергия. на что она способна и чем на самом деле является.Скриншоты

Серия 5. В чем секрет жизни? / What Is the Secret of Life?

В каждом из нас скрывается величайшая загадка. В чем радикальное отличие живого от неживого? Что создает богатое и насыщенное ощущение того, что мы живем? Попытки объяснить чудо жизни легли в основу длительных научных исканий.Скриншоты

Серия 6. Кто мы? / Who Are We?

В этой серии мы узнаем, что формирует наши мысли, чувства и желания.Скриншоты
Скриншоты:

MediaInfo (параметры всех серий одинаковы)

General
Unique ID : 223684712609107227707942957944753533465 (0xA8481BCDF77D4518A9A8F13D1B36B219)
Complete name : E:\BBC.The.Story.of.Science.HDTV.720p.avit-trecker\BBC.The.Story.of.Science.1of6.What.Is.Out.There.720p.HDTV.Rus.Eng (1).mkv
Format : Matroska
Format version : Version 4 / Version 2
File size : 1.71 GiB
Duration : 59mn 16s
Overall bit rate : 4 127 Kbps
Encoded date : UTC 2013-12-12 17:09:59
Writing application : mkvmerge v6.4.1 ('Omega Point') built on Sep 16 2013 22:05:10
Writing library : libebml v1.3.0 + libmatroska v1.4.1
Video
ID : 1
Format : AVC
Format/Info : Advanced Video Codec
Format profile : High@L4.1
Format settings, CABAC : Yes
Format settings, ReFrames : 4 frames
Codec ID : V_MPEG4/ISO/AVC
Duration : 59mn 16s
Bit rate : 4 000 Kbps
Width : 1 280 pixels
Height : 720 pixels
Display aspect ratio : 16:9
Frame rate mode : Constant
Frame rate : 25.000 fps
Color space : YUV
Chroma subsampling : 4:2:0
Bit depth : 8 bits
Scan type : Progressive
Bits/(Pixel*Frame) : 0.174
Stream size : 1.62 GiB (95%)
Writing library : x264 core 80 r1376M 3feaec2
Encoding settings : cabac=1 / ref=4 / deblock=1:0:0 / analyse=0x3:0x113 / me=umh / subme=9 / psy=1 / psy_rd=1.0:0.0 / mixed_ref=0 / me_range=24 / chroma_me=1 / trellis=1 / 8x8dct=1 / cqm=0 / deadzone=21,11 / fast_pskip=0 / chroma_qp_offset=-2 / threads=3 / sliced_threads=0 / nr=0 / decimate=1 / mbaff=0 / constrained_intra=0 / bframes=3 / b_pyramid=0 / b_adapt=1 / b_bias=0 / direct=1 / wpredb=1 / wpredp=2 / keyint=125 / keyint_min=25 / scenecut=40 / rc_lookahead=40 / rc=2pass / mbtree=1 / bitrate=4000 / ratetol=1.0 / qcomp=0.60 / qpmin=10 / qpmax=51 / qpstep=4 / cplxblur=20.0 / qblur=0.5 / vbv_maxrate=50000 / vbv_bufsize=50000 / ip_ratio=1.40 / aq=1:1.00
Language : English
Default : Yes
Forced : No
Audio
ID : 2
Format : MPEG Audio
Format version : Version 1
Format profile : Layer 3
Mode : Joint stereo
Mode extension : MS Stereo
Codec ID : A_MPEG/L3
Codec ID/Hint : MP3
Duration : 59mn 16s
Bit rate mode : Constant
Bit rate : 128 Kbps
Channel count : 2 channels
Sampling rate : 44.1 KHz
Compression mode : Lossy
Stream size : 54.3 MiB (3%)
Language : Russian
Default : Yes
Forced : No
Пожалуйста, не уходите с раздачи - помогите докачать другим. Если понравился релиз - жмите кнопку "Спасибо"!
[Профиль] [ЛС]
Показать сообщения:    
Ответить на тему

Текущее время: 25-Фев 19:07

Часовой пояс: UTC + 3



Вы не можете начинать темы
Вы не можете отвечать на сообщения
Вы не можете редактировать свои сообщения
Вы не можете удалять свои сообщения
Вы не можете голосовать в опросах
Вы не можете прикреплять файлы к сообщениям
Вы не можете скачивать файлы