Корейская война в цвете / The Korean war in color (2001) DVD5

Ответить на тему
 
Автор Сообщение

messer20080 ®

Пол: Мужской

Стаж: 7 года 11 месяца

Сообщений: 1927

Создавать темы 13-Дек-2013 17:02

[Цитировать]

-Корейская война в цвете / The Korean war in color (2001) DVD5- Режиссер / Телекомпания: Крис Кассел
Год выпуска: 2001
Жанр: Документальный
Описание:
Война в Корее в Цвете представляет разорванную войной Корею такой , какой её видели солдаты - в полном, наводящем ужас, цвете. На этом диске показана война такая, какая она есть на самом деле - полная ужаса, хаоса, крови и смелости. Многие фотографии и кадры этого фильма никогда не демонстрировались широкой публике, поскольку многие годы были засекречены военными службами из-за опасения, что открытый показ может повлечь за собою волну протестов. Вот некоторые из полноцветных моментов: деятельность подразделений MASH, дерзкий захват Инчёна, сражение за Сеул, кампания на реке Нактонг, зима в окрестностях Чёсиньского Резервуара, Война в небе и редчайший документальный материал режиссёра Джона Форда, запечатлевший 1 Дивизию морских пехотинцев в сражении. Так же фильм включает в себя и эпизод приезда Мерилин Монро в Корею, коллекцию личных фильмов, снятых самими солдатами, и много другое.
[kp]http://www.kinopoisk.ru/film/622068/[/kp] [imdb]http://www.imdb.com/title/tt1552199/[/imdb]
Продолжительность: 01:25:48
Качество видео: DVD5
Перевод: Одноголосый закадровый, любительский
(переводчик Антон Карповский)
Видеокодек: MPEG-2
Битрейт видео: ~5 000 Kbps
Видео: NTSC 4:3 (720x480) 60Hz VBR 29.970 fps
Аудио 1 Rus: AC3 192 Kbps 2 ch
Aудио 2 Eng: AC3 384 Kbps 6 ch
Аудио 3 Eng: AC3 224 Kbps 2 ch

Список эпизодов

- Проблемы на горизонте;
- Вторжение;
- Защита Пусан;
- Инчён;
- Дорога в Сеул;
- 38-я паралель;
- Китайский сюрприз;
- Замёрзший Чусон;
- На Юг;
- Настоящий MASH;
- Изменение баланса сил;
- Железный треугольник;
- Давление к миру;
- Война в воздухе;
- Война сворачивает крылья
.

MediaInfo

General
Complete name : E:\The_Korean_War_In_Color.2001.DVD5\VIDEO_TS\VTS_01_1.VOB
Format : MPEG-PS
File size : 1 024 MiB
Duration : 24mn 10s
Overall bit rate : 5 919 Kbps
Video
ID : 224 (0xE0)
Format : MPEG Video
Format version : Version 2
Format profile : Main@Main
Format settings, BVOP : Yes
Format settings, Matrix : Default
Format settings, GOP : M=2, N=15
Duration : 24mn 10s
Bit rate : 5 000 Kbps
Width : 720 pixels
Height : 480 pixels
Display aspect ratio : 4:3
Frame rate : 29.970 fps
Standard : NTSC
Color space : YUV
Chroma subsampling : 4:2:0
Bit depth : 8 bits
Scan type : Interlaced
Scan order : Top Field First
Compression mode : Lossy
Bits/(Pixel*Frame) : 0.483
Time code of first frame : 00:00:00;00
Time code source : Group of pictures header
Stream size : 865 MiB (84%)
Color primaries : BT.601 PAL
Transfer characteristics : BT.470 System B, BT.470 System G
Matrix coefficients : BT.601
Audio #1
ID : 189 (0xBD)-128 (0x80)
Format : AC-3
Format/Info : Audio Coding 3
Mode extension : CM (complete main)
Format settings, Endianness : Big
Muxing mode : DVD-Video
Duration : 24mn 10s
Bit rate mode : Constant
Bit rate : 192 Kbps
Channel count : 2 channels
Channel positions : Front: L R
Sampling rate : 48.0 KHz
Bit depth : 16 bits
Compression mode : Lossy
Stream size : 33.2 MiB (3%)
Audio #2
ID : 189 (0xBD)-129 (0x81)
Format : AC-3
Format/Info : Audio Coding 3
Mode extension : CM (complete main)
Format settings, Endianness : Big
Muxing mode : DVD-Video
Duration : 24mn 10s
Bit rate mode : Constant
Bit rate : 384 Kbps
Channel count : 6 channels
Channel positions : Front: L C R, Side: L R, LFE
Sampling rate : 48.0 KHz
Bit depth : 16 bits
Compression mode : Lossy
Stream size : 66.4 MiB (6%)
Audio #3
ID : 189 (0xBD)-130 (0x82)
Format : AC-3
Format/Info : Audio Coding 3
Mode extension : CM (complete main)
Format settings, Endianness : Big
Muxing mode : DVD-Video
Duration : 24mn 10s
Bit rate mode : Constant
Bit rate : 224 Kbps
Channel count : 2 channels
Channel positions : Front: L R
Sampling rate : 48.0 KHz
Bit depth : 16 bits
Compression mode : Lossy
Stream size : 38.7 MiB (4%)
Menu

Скриншоты меню:

Время раздачи: с 10.00 по 24.00 по Киеву


Последний раз редактировалось: messer20080 (2014-04-20 10:37), всего редактировалось 1 раз
[Профиль] [ЛС]

Создавать темы 18-Апр-2014 15:12 (спустя 4 месяца 4 дня)

Топик был перенесен из форума Документальные фильмы / Передачи в форум Военная тематика

messer20080
 
Показать сообщения:    
Ответить на тему

Текущее время: 27-Фев 16:28

Часовой пояс: UTC + 3



Вы не можете начинать темы
Вы не можете отвечать на сообщения
Вы не можете редактировать свои сообщения
Вы не можете удалять свои сообщения
Вы не можете голосовать в опросах
Вы не можете прикреплять файлы к сообщениям
Вы не можете скачивать файлы