Афоня (Георгий Данелия, комедия)(1975) DVDRip

Ответить на тему
 
Автор Сообщение

messer20080 ®

Пол: Мужской

Стаж: 7 года 11 месяца

Сообщений: 1927

Создавать темы 13-Дек-2013 23:55

[Цитировать]

-Афоня (1975) DVDRip
«Плохой хороший человек»
- Название: Афоня
Год выпуска: 1975
Страна: СССР
Жанр: Комедия
Режиссер: Георгий Данелия
Актеры:
Леонид Куравлев, Евгения Симонова, Евгений Леонов, Борислав Брондуков, Валентина Талызина, Владимир Басов, Николай Парфенов, Готлиб Ронинсон, Нина Русланова, Раиса Куркина, Нина Маслова, Алексей Ванин, Савелий Крамаров, Николай Гринько, Николай Граббе, Геннадий Ялович
Продолжительность: 01:27:11
Описание фильма:
Весело и беззаботно жил слесарь-сантехник Афанасий. Не гнушался левыми заработками, любил выпить, поволочиться за девушками. Так проходил день за днем, но однажды… О том, что случилось с Афоней, рассказывает фильм признанного мастера комедии Георгия Данелии.

Знаете ли вы, что...

- На главную роль претендовали три человека – польский актер Даниэль Ольбрыхский, Владимир Высоцкий и Леонид Куравлев.
- Роль Федулы для актера Бронислава Брондукова стала знаковой. Актер так вошел в роль,что однажды охранники ресторана московской гостиницы, где проходили съемки, приняли его за алкаша. В перерывах между съемками Брондуков, не переодеваясь, вышел на улицу покурить и ... пропал. Кто-то из киногруппы пошел его искать и увидел, как упирающегося Брондукова с бранью выкидывают из гостиницы: «Тоже выдумал - артист! Сказали тебе, пьянь болотная: нечего тебе здесь делать!»
- Многие помнят эпизод,когда Афоня «кадрит» пышногрудую девицу на танцах. Актрисе Татьяне Распутиной, чтобы увеличить грудь, решили подложить в бюстгальтер манную крупу. Грудь так «заиграла» в прозрачной блузке, что потом критики искренне восхищались этой художественной находкой.
- В фильме «Афоня» состоялся кинодебют группы «Машина времени». Песня для фильма была приобретена по всем законам и спустя несколько месяцев Макаревич получил деньги, около 500 рублей, большая по тем временам сумма. На эти деньги группа купила в комиссионке магнитофон «Грюндиг», на котором музыканты записали не один хит.
- Занимает по посещаемости 15-е место среди отечественных фильмов за всю историю советского кинопроката.
Видеокодек: DivX 4/5/6
Битрейт видео: ~1786 kb/s
Размер кадра: 704x528. 25 fps. 4:3. Progressive
Качество видео: DVDRip
Аудиокодек: AC3
Битрейт аудио: 448.00 kb/s. 48 kHz, 6 channels. Front: L C R, Surround: L R, LFE

MediaInfo

General
Полное имя : E:\Торренты\Реставрация фильмов\Afonja_DVDRip.1975.avi
Формат : AVI
Формат/Информация : Audio Video Interleave
Размер файла : 1.37 GiB
Продолжительность : 1h 27mn
Общий поток : 2 244 Kbps
Программа кодирования : VirtualDubModRus 1.5.10.2 (build 2542/release)
Библиотека кодирования : VirtualDubMod build 2542/release
Video
Идентификатор : 0
Формат : MPEG-4 Visual
Параметр BVOP формата : 1
Параметр QPel формата : No
Параметр GMC формата : No warppoints
Параметр матрицы формата : Default (H.263)
Режим смешивания : Packed bitstream
Идентификатор кодека : DX50
Идентификатор кодека/Подсказка : DivX 5
Продолжительность : 1h 27mn
Битрейт : 1 786 Kbps
Ширина : 704 pixels
Высота : 528 pixels
Соотношение сторон : 4:3
Частота кадров : 25.000 fps
Цветовое пространство : YUV
Подвыборка цветности : 4:2:0
Битовая глубина : 8 bits
Тип развёртки : Progressive
Метод сжатия : Lossy
Бит/(Пиксели*Кадры) : 0.192
Размер потока : 1.09 GiB (80%)
Библиотека кодирования : DivX 6.8.3-6.8.4 (UTC 2008-06-07)
Audio
Идентификатор : 1
Формат : AC-3
Формат/Информация : Audio Coding 3
Расширение режима : CM (complete main)
Идентификатор кодека : 2000
Продолжительность : 1h 27mn
Вид битрейта : Constant
Битрейт : 448 Kbps
Каналы : 6 channels
Расположение каналов : Front: L C R, Side: L R, LFE
Частота : 48.0 KHz
Битовая глубина : 16 bits
Метод сжатия : Lossy
Размер потока : 279 MiB (20%)
Выравнивание : Aligned on interleaves
Продолжительность промежутка : 40 ms (1.00 video frame)
Время предзагрузки промежутка : 512 ms
Дополнительно: Реставрация изображения и звука КП
Рейтинг:
[Профиль] [ЛС]

Viktor59

Пол: Мужской

Стаж: 8 года

Сообщений: 886

Откуда: Измаил

Создавать темы 14-Дек-2013 00:29 (спустя 34 минуты)

[Цитировать]

шедевр искусства
[Профиль] [ЛС]

messer20080 ®

Пол: Мужской

Стаж: 7 года 11 месяца

Сообщений: 1927

Создавать темы 14-Дек-2013 00:36 (спустя 7 минуты)

[Цитировать]

Надо создать раздел раздел - Сборники фильмов и такие шедевры - класику зарубежную и отчественную туда помещать. Трилогии т и т.п.
[Профиль] [ЛС]
Показать сообщения:    
Ответить на тему

Текущее время: 25-Фев 19:52

Часовой пояс: UTC + 3



Вы не можете начинать темы
Вы не можете отвечать на сообщения
Вы не можете редактировать свои сообщения
Вы не можете удалять свои сообщения
Вы не можете голосовать в опросах
Вы не можете прикреплять файлы к сообщениям
Вы не можете скачивать файлы