Слежка / Холодные глаза / Cold Eyes / Gamshijadeul (Чо Ый Сок / Jo Eui-seok, Ким Бён Со / Kim Byeong-seo) (2013, детектив, экшн, HDRip) | Релиз мультитрекерный

Ответить на тему
 
Автор Сообщение

donald ®

Пол: Мужской

Стаж: 7 года 9 месяца

Сообщений: 173

Создавать темы 14-Дек-2013 15:42

[Цитировать]

| Релиз мультитрекерный
Слежка / Холодные глаза / Cold Eyes / Gamshijadeul
Год выпуска: 2013
Страна: Южная Корея
Жанр: детектив, экшн
Продолжительность: 01:58:57
Перевод: Любительский (двухголосый) (Озвучивание Ворон и Wenlana)
Русские субтитры: есть
Оригинальная аудиодорожка: Корейский
Режиссер: Чо Ый Сок / Jo Eui-seok, Ким Бён Со / Kim Byeong-seo
В ролях: Хан Хе Чжу, Соль Гён Гу, Чон У Сон, Ли Чун Хо
Описание: Новенькая сотрудница полицейского отдела наружного наблюдения Ха Ен Чжу вместе с мудрым наставником, и по совместительству шефом, Хван Сан Чжуном ловят группу преступников, виновных в дерзких ограблениях. В отделе отборные специалисты, но и их противник, опасный и таинственный главарь группировки, тоже не лыком шит.
На противостоянии интеллекта, опыта, инстинкта и, конечно, незаурядной концентрации внимания, строится основной конфликт этого фильма.
Качество: HDRip - Сэмпл
Исходник: Cold.Eyes.2013.720p.BluRay.x264-WiKi
Формат видео: avi
Видео: 720x304 (2.37:1), 24 fps, XviD MPEG-4 ~1722 kbps avg, 0.33 bit/pixel
Аудио: 48 kHz, AC3 Dolby Digital, 3/2 (L,C,R,l,r) + LFE ch, ~448 kbps (Русский)
Аудио: 48 kHz, AC3 Dolby Digital, 3/2 (L,C,R,l,r) + LFE ch, ~448 kbps (Корейский)
Формат субтитров: softsub (srt)

Скриншоты

отчет MediaInfo

Формат : AVI
Формат/Информация : Audio Video Interleave
Профиль формата : OpenDML
Размер файла : 2,18 Гбайт
Продолжительность : 1 ч. 59 м.
Общий поток : 2626 Кбит/сек
Программа кодирования : VirtualDubMod 1.5.10.2 (build 2542/release)
Библиотека кодирования : VirtualDubMod build 2542/release
Видео
Идентификатор : 0
Формат : MPEG-4 Visual
Профиль формата : Advanced Simple@L5
Параметр BVOP формата : 2
Параметр QPel формата : Нет
Параметр GMC формата : Без точки перехода
Параметр матрицы формата : Default (MPEG)
Идентификатор кодека : XVID
Идентификатор кодека/Подсказка : XviD
Продолжительность : 1 ч. 59 м.
Битрейт : 1712 Кбит/сек
Ширина : 720 пикселей
Высота : 304 пикселя
Соотношение сторон : 2,35:1
Частота кадров : 24,000 кадра/сек
Цветовое пространство : YUV
Субдискретизация насыщенности : 4:2:0
Битовая глубина : 8 бит
Тип развёртки : Прогрессивная
Метод сжатия : С потерями
Бит/(Пиксели*Кадры) : 0.326
Размер потока : 1,42 Гбайт (65%)
Библиотека кодирования : XviD 1.2.1 (UTC 2008-12-04)
Аудио #1
Идентификатор : 1
Формат : AC-3
Формат/Информация : Audio Coding 3
Расширение режима : CM (complete main)
Параметр Endianness формата : Big
Идентификатор кодека : 2000
Продолжительность : 1 ч. 59 м.
Вид битрейта : Постоянный
Битрейт : 448 Кбит/сек
Каналы : 6 каналов
Расположение каналов : Front: L C R, Side: L R, LFE
Частота : 48,0 КГц
Битовая глубина : 16 бит
Метод сжатия : С потерями
Размер потока : 381 Мбайт (17%)
Выравнивание : Разделение по промежуткам
Продолжительность промежутка : 42 мс. (1,00 видеокадр)
Время предзагрузки промежутка : 500 мс.
Аудио #2
Идентификатор : 2
Формат : AC-3
Формат/Информация : Audio Coding 3
Расширение режима : CM (complete main)
Параметр Endianness формата : Big
Идентификатор кодека : 2000
Продолжительность : 1 ч. 59 м.
Вид битрейта : Постоянный
Битрейт : 448 Кбит/сек
Каналы : 6 каналов
Расположение каналов : Front: L C R, Side: L R, LFE
Частота : 48,0 КГц
Битовая глубина : 16 бит
Метод сжатия : С потерями
Размер потока : 381 Мбайт (17%)
Выравнивание : Разделение по промежуткам
Продолжительность промежутка : 42 мс. (1,00 видеокадр)
Время предзагрузки промежутка : 500 мс.
| Релиз мультитрекерный
[Профиль] [ЛС]

donald ®

Пол: Мужской

Стаж: 7 года 9 месяца

Сообщений: 173

Создавать темы 15-Дек-2013 00:18 (спустя 8 часа)

[Цитировать]

Понравился фильм. И перевод сносный
[Профиль] [ЛС]
Показать сообщения:    
Ответить на тему

Текущее время: 07-Мар 21:36

Часовой пояс: UTC + 3



Вы не можете начинать темы
Вы не можете отвечать на сообщения
Вы не можете редактировать свои сообщения
Вы не можете удалять свои сообщения
Вы не можете голосовать в опросах
Вы не можете прикреплять файлы к сообщениям
Вы не можете скачивать файлы