Старикам тут не место / No Country for Old Men (Итан Коэн, Джоэл Коэн) (2007, Триллер, драма, криминал, BDRip-AVC) | D, P, P2, A | Релиз мультитрекерный

Ответить на тему
 
Автор Сообщение

donald ®

Пол: Мужской

Стаж: 7 года 9 месяца

Сообщений: 173

Создавать темы 14-Дек-2013 16:04

[Цитировать]

| Релиз мультитрекерный
Информация о фильме
Название: Старикам тут не место
Оригинальное название: No Country for Old Men
Год выхода: 2007
Жанр: Триллер, драма, криминал
Режиссер: Этан Коэн, Джоэл Коэн
В ролях: Томми Ли Джонс, Джош Бролин, Хавьер Бардем, Келли Макдоналд, Вуди Харрельсон, Бет Грант, Гаррет Диллахант, Тесс Харпер, Бэрри Корбин, Стивен Рут, Роджер Бойс, Ана Ридер, Кит Гвин, Зак Хопкинс, Чип Лав, Эдуардо Антонио Гарсиа, Джин Джонс, Мик Вотфорд, Бутс Сауферлэнд, Кэти Ламкин
О фильме:Обычный работяга обнаруживает в пустыне гору трупов, грузовик, набитый героином, и соблазнительную сумму в два миллиона долларов наличными. Он решает взять деньги себе, и результатом становится волна насилия, которую не может остановить вся полиция Западного Техаса.

Страна: США
Студия: Miramax Films, Paramount Vantage, Mike Zoss Productions
Продолжительность: 02:02:10
Перевод: Дублированный + профессиональный многоголосый + профессиональный двухголосый + авторский одноголосый (А.Гаврилов), (Ю. Сербин) + украинский + оригинал
Файл
Кодек: MPEG-4 AVC
Качество: BDRip-AVC
Видео: 2600 Кбит/с, 1024х436, 23.976 кадр/с
Звук:
Аудио #1: Русский (AC3, 6 ch, 448 Кбит/с) / Дублированный
Аудио #2: Русский (AC3, 6 ch, 384 Кбит/с) / Профессиональный многоголосый (Киномания)
Аудио #3: Русский (AC3, 6 ch, 448 Кбит/с) / Профессиональный многоголосый (LostFilm)
Аудио #4: Русский (AC3, 6 ch, 448 Кбит/с) / Профессиональный двухголосый (П. Гланц и И. Королева)
Аудио #5: Русский (AC3, 6 ch, 448 Кбит/с) / Авторский одноголосый (А. Гаврилов)
Аудио #6: Русский (AC3, 6 ch, 384 Кбит/с) / Авторский одноголосый (Ю. Сербин)
Аудио #7: Украинский (AC3, 6 ch, 448 Кбит/с) / Профессиональный многоголосый (Inter)
Аудио #8: Английский (AC3, 6 ch, 448 Кбит/с)
Субтитры: Русские, украинские, английские
Семпл

MediaInfo:

Общее
Уникальный идентификатор : 251885429055610072570598426010687563786 (0xBD7F5E793A89BC2AB974F0114B0AE80A)
Полное имя : F:3Films FРелизыStarikam.tut.ne.mesto.2007.x264.BDRip.AVC.MediaClub.mkv
Формат : Matroska
Версия формата : Version 2
Размер файла : 5,17 Гбайт
Продолжительность : 2 ч. 2 м.
Общий поток : 6058 Кбит/сек
Название фильма : -= MediaClub =- rip by Lefevr
Дата кодирования : UTC 2013-12-10 18:20:48
Программа кодирования : mkvmerge v5.4.0 ('Piper') built on Mar 10 2012 13:34:39
Библиотека кодирования : libebml v1.2.3 + libmatroska v1.3.0
Видео
Идентификатор : 1
Формат : AVC
Формат/Информация : Advanced Video Codec
Профиль формата : High@L4.1
Параметр CABAC формата : Да
Параметр ReFrames формата : 9 кадров
Идентификатор кодека : V_MPEG4/ISO/AVC
Продолжительность : 2 ч. 2 м.
Битрейт : 2600 Кбит/сек
Ширина : 1024 пикселя
Высота : 436 пикселей
Соотношение сторон : 2,35:1
Режим частоты кадров : Постоянный
Частота кадров : 23,976 кадра/сек
Цветовое пространство : YUV
Субдискретизация насыщенности : 4:2:0
Битовая глубина : 8 бит
Тип развёртки : Прогрессивная
Бит/(Пиксели*Кадры) : 0.243
Размер потока : 2,12 Гбайт (41%)
Заголовок : Starikam.tut.ne.mesto.2007.x264.BDRip.AVC.MediaClub
Библиотека кодирования : x264 core 130 r2273 b3065e6
Настройки программы : cabac=1 / ref=9 / deblock=1:-3:-3 / analyse=0x3:0x133 / me=umh / subme=11 / psy=1 / psy_rd=1.00:0.20 / mixed_ref=1 / me_range=32 / chroma_me=1 / trellis=2 / 8x8dct=1 / cqm=0 / deadzone=21,11 / fast_pskip=0 / chroma_qp_offset=-3 / threads=6 / lookahead_threads=1 / sliced_threads=0 / nr=0 / decimate=0 / interlaced=0 / bluray_compat=0 / constrained_intra=0 / bframes=8 / b_pyramid=2 / b_adapt=2 / b_bias=0 / direct=3 / weightb=1 / open_gop=0 / weightp=2 / keyint=240 / keyint_min=23 / scenecut=40 / intra_refresh=0 / rc=2pass / mbtree=0 / bitrate=2600 / ratetol=1.0 / qcomp=0.60 / qpmin=0 / qpmax=69 / qpstep=4 / cplxblur=20.0 / qblur=0.5 / ip_ratio=1.40 / pb_ratio=1.30 / aq=1:1.00
Язык : English
Default : Да
Forced : Нет
Аудио #1
Идентификатор : 2
Формат : AC-3
Формат/Информация : Audio Coding 3
Расширение режима : CM (complete main)
Параметр Endianness формата : Big
Идентификатор кодека : A_AC3
Продолжительность : 2 ч. 2 м.
Вид битрейта : Постоянный
Битрейт : 448 Кбит/сек
Каналы : 6 каналов
Расположение каналов : Front: L C R, Side: L R, LFE
Частота : 48,0 КГц
Битовая глубина : 16 бит
Метод сжатия : С потерями
Размер потока : 392 Мбайт (7%)
Заголовок : TRACK_01_DUB_RUS
Язык : Russian
Default : Да
Forced : Да
Аудио #2
Идентификатор : 3
Формат : AC-3
Формат/Информация : Audio Coding 3
Расширение режима : CM (complete main)
Параметр Endianness формата : Big
Идентификатор кодека : A_AC3
Продолжительность : 2 ч. 2 м.
Вид битрейта : Постоянный
Битрейт : 384 Кбит/сек
Каналы : 6 каналов
Расположение каналов : Front: L C R, Side: L R, LFE
Частота : 48,0 КГц
Битовая глубина : 16 бит
Метод сжатия : С потерями
Размер потока : 336 Мбайт (6%)
Заголовок : TRACK_02_MVO_RUS_Kinomanija
Язык : Russian
Default : Нет
Forced : Нет
Аудио #3
Идентификатор : 4
Формат : AC-3
Формат/Информация : Audio Coding 3
Расширение режима : CM (complete main)
Параметр Endianness формата : Big
Идентификатор кодека : A_AC3
Продолжительность : 2 ч. 2 м.
Вид битрейта : Постоянный
Битрейт : 448 Кбит/сек
Каналы : 6 каналов
Расположение каналов : Front: L C R, Side: L R, LFE
Частота : 48,0 КГц
Битовая глубина : 16 бит
Метод сжатия : С потерями
Размер потока : 392 Мбайт (7%)
Заголовок : TRACK_03_MVO_RUS_LostFilm
Язык : Russian
Default : Нет
Forced : Нет
Аудио #4
Идентификатор : 5
Формат : AC-3
Формат/Информация : Audio Coding 3
Расширение режима : CM (complete main)
Параметр Endianness формата : Big
Идентификатор кодека : A_AC3
Продолжительность : 2 ч. 2 м.
Вид битрейта : Постоянный
Битрейт : 448 Кбит/сек
Каналы : 6 каналов
Расположение каналов : Front: L C R, Side: L R, LFE
Частота : 48,0 КГц
Битовая глубина : 16 бит
Метод сжатия : С потерями
Размер потока : 392 Мбайт (7%)
Заголовок : TRACK_04_DVO_RUS_Glanc&Koroleva
Язык : Russian
Default : Нет
Forced : Нет
Аудио #5
Идентификатор : 6
Формат : AC-3
Формат/Информация : Audio Coding 3
Расширение режима : CM (complete main)
Параметр Endianness формата : Big
Идентификатор кодека : A_AC3
Продолжительность : 2 ч. 2 м.
Вид битрейта : Постоянный
Битрейт : 448 Кбит/сек
Каналы : 6 каналов
Расположение каналов : Front: L C R, Side: L R, LFE
Частота : 48,0 КГц
Битовая глубина : 16 бит
Метод сжатия : С потерями
Размер потока : 392 Мбайт (7%)
Заголовок : TRACK_05_AVO_RUS_Gavrilov
Язык : Russian
Default : Нет
Forced : Нет
Аудио #6
Идентификатор : 7
Формат : AC-3
Формат/Информация : Audio Coding 3
Расширение режима : CM (complete main)
Параметр Endianness формата : Big
Идентификатор кодека : A_AC3
Продолжительность : 2 ч. 2 м.
Вид битрейта : Постоянный
Битрейт : 384 Кбит/сек
Каналы : 6 каналов
Расположение каналов : Front: L C R, Side: L R, LFE
Частота : 48,0 КГц
Битовая глубина : 16 бит
Метод сжатия : С потерями
Размер потока : 336 Мбайт (6%)
Заголовок : TRACK_06_AVO_RUS_Serbin
Язык : Russian
Default : Нет
Forced : Нет
Аудио #7
Идентификатор : 8
Формат : AC-3
Формат/Информация : Audio Coding 3
Расширение режима : CM (complete main)
Параметр Endianness формата : Big
Идентификатор кодека : A_AC3
Продолжительность : 2 ч. 2 м.
Вид битрейта : Постоянный
Битрейт : 448 Кбит/сек
Каналы : 6 каналов
Расположение каналов : Front: L C R, Side: L R, LFE
Частота : 48,0 КГц
Битовая глубина : 16 бит
Метод сжатия : С потерями
Размер потока : 392 Мбайт (7%)
Заголовок : TRACK_07_MVO_UKR
Язык : Ukrainian
Default : Нет
Forced : Нет
Аудио #8
Идентификатор : 9
Формат : AC-3
Формат/Информация : Audio Coding 3
Расширение режима : CM (complete main)
Параметр Endianness формата : Big
Идентификатор кодека : A_AC3
Продолжительность : 2 ч. 2 м.
Вид битрейта : Постоянный
Битрейт : 448 Кбит/сек
Каналы : 6 каналов
Расположение каналов : Front: L C R, Side: L R, LFE
Частота : 48,0 КГц
Битовая глубина : 16 бит
Метод сжатия : С потерями
Размер потока : 392 Мбайт (7%)
Заголовок : TRACK_08_ORIGINAL_ENG
Язык : English
Default : Нет
Forced : Нет
Текст #1
Идентификатор : 10
Формат : UTF-8
Идентификатор кодека : S_TEXT/UTF8
Идентификатор кодека/Информация : UTF-8 Plain Text
Заголовок : TEXT_01_SUB_RUS
Язык : Russian
Default : Нет
Forced : Нет
Текст #2
Идентификатор : 11
Формат : UTF-8
Идентификатор кодека : S_TEXT/UTF8
Идентификатор кодека/Информация : UTF-8 Plain Text
Заголовок : TEXT_02_SUB_UKR
Язык : Ukrainian
Default : Нет
Forced : Нет
Текст #3
Идентификатор : 12
Формат : UTF-8
Идентификатор кодека : S_TEXT/UTF8
Идентификатор кодека/Информация : UTF-8 Plain Text
Заголовок : TEXT_03_SUB_ENG
Язык : English
Default : Нет
Forced : Нет
Меню
00:00:00.000 : en:Chapter 01
00:03:44.474 : en:Chapter 02
00:13:41.904 : en:Chapter 03
00:20:50.415 : en:Chapter 04
00:27:52.837 : en:Chapter 05
00:36:58.382 : en:Chapter 06
00:41:52.426 : en:Chapter 07
00:52:17.050 : en:Chapter 08
01:04:59.312 : en:Chapter 09
01:13:08.801 : en:Chapter 10
01:20:05.801 : en:Chapter 11
01:27:35.875 : en:Chapter 12
01:34:35.127 : en:Chapter 13
01:42:21.009 : en:Chapter 14
01:47:22.644 : en:Chapter 15
01:56:32.652 : en:Chapter 16

x264 log:

x264 log
x264 [info]: frame I:1426 Avg QP:14.79 size: 87042
x264 [info]: frame P:37169 Avg QP:17.70 size: 27889
x264 [info]: frame B:137158 Avg QP:19.18 size: 8903

Скриншоты

| Релиз мультитрекерный
[Профиль] [ЛС]
Показать сообщения:    
Ответить на тему

Текущее время: 27-Фев 15:34

Часовой пояс: UTC + 3



Вы не можете начинать темы
Вы не можете отвечать на сообщения
Вы не можете редактировать свои сообщения
Вы не можете удалять свои сообщения
Вы не можете голосовать в опросах
Вы не можете прикреплять файлы к сообщениям
Вы не можете скачивать файлы