Королевство викингов / Vikingdom (2013) HDRip

Ответить на тему
 
Автор Сообщение

Enigmatik ®

Пол: Мужской

Стаж: 7 года 11 месяца

Сообщений: 1138

Откуда: ✔ Оттуда ✔

Создавать темы 15-Дек-2013 17:56

[Цитировать]

-Королевство викингов / Vikingdom (2013) HDRip«Он хотел владеть миром»- Год выпуска: 2013
Производство: США, Малайзия / KRU Studios, Universal Sony Pictures Home Entertainment
Жанр: Приключения, Фэнтези, Боевик
Перевод: Многоголосый закадровый, профессиональный (BaibaKo)
Субтитры: Отсутствуют
Дата мировой премьеры: 12 сентября 2013
Дата украинской премьеры: 12 декабря 2013, «Каскад Украина»
Режиссер: Исри Крю
Продюсер: Ширин М. Хашим, Шакед Беренсон, Патрик Эвальд
Актеры: Доминик Пёрселл, Наташа Мальте, Крэйг Фэйрбрасс, Джон Фу, Конан Стивенс, Джесси Мосс, Теган Мосс, Патрик Мюррэй, Байрон Гибсон, Тревор Коппола
Описание фильма:
Воин, пытающийся забыть жестокость своего прошлого, вынужден вновь взять в руки меч, чтобы сразиться с невообразимой силы божеством.

Продолжительность: 01:54:34
Качество видео: HDRip
Видеокодек: Xvid
Битрейт видео: ~718 Kbit/s
Размер кадра: 640 x 352
Аудиокодек: AC3 2.0
Битрейт аудио: 128 Kbit/s

MediaInfo

Общее
Полное имя : D:\Торренты\РЕЛИЗЫ\Королевство викингов. 2013..avi
Формат : AVI
Формат/Информация : Audio Video Interleave
Размер файла : 701 Мбайт
Продолжительность : 1 ч. 54 м.
Общий поток : 856 Кбит/сек
Программа кодирования : VirtualDubMod 1.5.10.2 (build 2540/release)
Библиотека кодирования : VirtualDubMod build 2540/release
Видео
Идентификатор : 0
Формат : MPEG-4 Visual
Профиль формата : Advanced Simple@L5
Параметр BVOP формата : 2
Параметр QPel формата : Нет
Параметр GMC формата : Без точки перехода
Параметр матрицы формата : Выборочная
Идентификатор кодека : XVID
Идентификатор кодека/Подсказка : XviD
Продолжительность : 1 ч. 54 м.
Битрейт : 718 Кбит/сек
Ширина : 640 пикс.
Высота : 352 пикс.
Соотношение сторон : 16:9
Частота кадров : 23,976 кадр/сек
Цветовое пространство : YUV
Подвыборка цветности : 4:2:0
Битовая глубина : 8 бит
Тип развёртки : Прогрессивная
Метод сжатия : С потерями
Бит/(Пиксели*Кадры) : 0.133
Размер потока : 589 Мбайт (84%)
Библиотека кодирования : XviD 1.2.1 (UTC 2008-12-04)
Аудио
Идентификатор : 1
Формат : AC-3
Формат/Информация : Audio Coding 3
Расширение режима : CM (complete main)
Идентификатор кодека : 2000
Продолжительность : 1 ч. 54 м.
Вид битрейта : Постоянный
Битрейт : 128 Кбит/сек
Каналы : 2 канала
Расположение каналов : Front: L R
Частота : 48,0 КГц
Битовая глубина : 16 бит
Метод сжатия : С потерями
Размер потока : 105 Мбайт (15%)
Выравнивание : Разделение по промежуткам
Продолжительность промежутка : 42 мс. (1,00 видеокадр)
Время предзагрузки промежутка : 500 ms
Скриншоты:
[Профиль] [ЛС]

Viktor59

Пол: Мужской

Стаж: 8 года

Сообщений: 886

Откуда: Измаил

Создавать темы 15-Дек-2013 18:05 (спустя 8 минуты)

[Цитировать]

Золото потому что первая мультитрекерная. Спасибо
[Профиль] [ЛС]

Enigmatik ®

Пол: Мужской

Стаж: 7 года 11 месяца

Сообщений: 1138

Откуда: ✔ Оттуда ✔

Создавать темы 15-Дек-2013 18:13 (спустя 7 минуты)

[Цитировать]

Viktor59, Спасибо за Спасибо!
[Профиль] [ЛС]
Показать сообщения:    
Ответить на тему

Текущее время: 25-Фев 19:03

Часовой пояс: UTC + 3



Вы не можете начинать темы
Вы не можете отвечать на сообщения
Вы не можете редактировать свои сообщения
Вы не можете удалять свои сообщения
Вы не можете голосовать в опросах
Вы не можете прикреплять файлы к сообщениям
Вы не можете скачивать файлы