Два ствола / 2 Guns (2013) BDRip [1080p] [AVO]

Ответить на тему
 
Автор Сообщение

Enigmatik ®

Пол: Мужской

Стаж: 8 года

Сообщений: 1138

Откуда: ✔ Оттуда ✔

Создавать темы 15-Дек-2013 18:07

[Цитировать]

-Два ствола (2013) BDRip
«Карты есть, деньги будут»
- Год выпуска: 2013
Производство: США
Жанр: Боевик, Триллер, Драма, Комедия, Криминал
Перевод: Одноголосый закадровый, авторский
Субтитры: Вшитые отключаемые
Язык субтитров: Русский, английский
Дата мировой премьеры: 30 июля 2013
Дата российской премьеры: 5 сентября 2013, «WDSSPR»
Режиссер: Бальтасар Кормакур
Актеры: Дензел Вашингтон, Марк Уолберг, Пола Пэттон, Билл Пэкстон, Эдвард Джеймс Олмос, Джеймс Марсден, Роберт Джон Бёрк, Фред Уорд, Патрик Фишлер, Лаки Джонсон
Описание фильма:
Это история двух грабителей, которые на самом деле не те, кем кажутся. Один из них — агент из управления по борьбе с наркотиками, а другой — тайный агент разведки ВМС. Сами того не желая, они занимаются расследованием дел друг друга, а также воруют деньги у мафии. Через некоторое время героям придется украсть 50 миллионов долларов у ЦРУ.
[kp]http://www.kinopoisk.ru/film/464290/[/kp] [imdb]http://www.imdb.com/title/tt1272878/[/imdb]
Дата мировой премьеры: 30 июля 2013
Дата российской премьеры: 5 сентября 2013, «WDSSPR»
Дата выхода DVD релиза: 18 февраля 2014, «Columbia/Sony»
Дата выхода Blu-Ray релиза: 18 февраля 2014, «Columbia/Sony»
Возраст 16+ - зрителям, достигшим 16 лет
Рейтинг MPAA R - лицам до 17 лет обязательно присутствие взрослого
Продолжительность: 01:49:15
Качество видео: BDRip
Видео: MPEG-4 AVC/H.264, 1920x800, ~8 886 Kbps, 23.976 fps
Аудио 1: AC3 5.1, 640 Kbps, 48 KHz [Русский] (AVO, Ю.Сербин)
Аудио 2: AC3 5.1, 640 Kbps, 48 KHz [Английский] (Оригинал)

MediaInfo

General
Complete name                            : E:\Torrents\2.Guns.2013.BDRip.1080p.Rus.Eng.mkv
Format                                   : Matroska
Format version                           : Version 2
File size                                : 7.76 GiB
Duration                                 : 1h 49mn
Overall bit rate                         : 10.2 Mbps
Movie name                               : Два ствола / 2 Guns (2013)
Encoded date                             : UTC 2013-12-09 14:25:48
Writing application                      : mkvmerge v5.8.0 ('No Sleep / Pillow') built on Sep  2 2012 15:37:04
Writing library                          : libebml v1.2.3 + libmatroska v1.3.0
Attachment                               : Yes
Video
ID                                       : 1
Format                                   : AVC
Format/Info                              : Advanced Video Codec
Format profile                           : [url=mailto:High@L4.1]High@L4.1[/url]
Format settings, CABAC                   : Yes
Format settings, ReFrames                : 5 frames
Codec ID                                 : V_MPEG4/ISO/AVC
Duration                                 : 1h 49mn
Bit rate                                 : 8 886 Kbps
Width                                    : 1 920 pixels
Height                                   : 800 pixels
Display aspect ratio                     : 2.40:1
Frame rate mode                          : Constant
Frame rate                               : 23.976 fps
Color space                              : YUV
Chroma subsampling                       : 4:2:0
Bit depth                                : 8 bits
Scan type                                : Progressive
Bits/(Pixel*Frame)                       : 0.241
Stream size                              : 6.63 GiB (85%)
Title                                    : Release by N1NT3NDO
Writing library                          : x264 core 140 r2377 1ca7bb9
Encoding settings                        : cabac=1 / ref=5 / deblock=1:-3:-3 / analyse=0x3:0x133 / me=umh / subme=11 / psy=1 / psy_rd=1.00:0.00 / mixed_ref=1 / me_range=32 / chroma_me=1 / trellis=2 / 8x8dct=1 / cqm=0 / deadzone=21,11 / fast_pskip=0 / chroma_qp_offset=-2 / threads=12 / lookahead_threads=1 / sliced_threads=0 / nr=0 / decimate=0 / interlaced=0 / bluray_compat=0 / constrained_intra=0 / bframes=6 / b_pyramid=2 / b_adapt=2 / b_bias=0 / direct=3 / weightb=1 / open_gop=0 / weightp=2 / keyint=240 / keyint_min=23 / scenecut=40 / intra_refresh=0 / rc=2pass / mbtree=0 / bitrate=8886 / ratetol=1.0 / qcomp=0.60 / qpmin=0 / qpmax=69 / qpstep=4 / cplxblur=20.0 / qblur=0.5 / ip_ratio=1.40 / pb_ratio=1.30 / aq=1:1.00
Language                                 : English
Default                                  : Yes
Forced                                   : No
Audio #1
ID                                       : 2
Format                                   : AC-3
Format/Info                              : Audio Coding 3
Mode extension                           : CM (complete main)
Format settings, Endianness              : Big
Codec ID                                 : A_AC3
Duration                                 : 1h 49mn
Bit rate mode                            : Constant
Bit rate                                 : 640 Kbps
Channel count                            : 6 channels
Channel positions                        : Front: L C R, Side: L R, LFE
Sampling rate                            : 48.0 KHz
Bit depth                                : 16 bits
Compression mode                         : Lossy
Stream size                              : 500 MiB (6%)
Title                                    : Одноголосый закадровый, Ю.Сербин
Language                                 : Russian
Default                                  : Yes
Forced                                   : No
Audio #2
ID                                       : 3
Format                                   : AC-3
Format/Info                              : Audio Coding 3
Mode extension                           : CM (complete main)
Format settings, Endianness              : Big
Codec ID                                 : A_AC3
Duration                                 : 1h 49mn
Bit rate mode                            : Constant
Bit rate                                 : 640 Kbps
Channel count                            : 6 channels
Channel positions                        : Front: L C R, Side: L R, LFE
Sampling rate                            : 48.0 KHz
Bit depth                                : 16 bits
Compression mode                         : Lossy
Stream size                              : 500 MiB (6%)
Title                                    : English
Language                                 : English
Default                                  : No
Forced                                   : No
Text #1
ID                                       : 4
Format                                   : UTF-8
Codec ID                                 : S_TEXT/UTF8
Codec ID/Info                            : UTF-8 Plain Text
Title                                    : Russian
Language                                 : Russian
Default                                  : No
Forced                                   : No
Text #2
ID                                       : 5
Format                                   : UTF-8
Codec ID                                 : S_TEXT/UTF8
Codec ID/Info                            : UTF-8 Plain Text
Title                                    : English
Language                                 : English
Default                                  : No
Forced                                   : No
Menu
00:00:00.000                             : en:00:00:00.000
00:05:36.044                             : en:00:05:36.044
00:10:44.185                             : en:00:10:44.185
00:15:15.206                             : en:00:15:15.206
00:20:42.283                             : en:00:20:42.283
00:24:47.736                             : en:00:24:47.736
00:29:20.842                             : en:00:29:20.842
00:36:24.099                             : en:00:36:24.099
00:40:56.371                             : en:00:40:56.371
00:45:39.278                             : en:00:45:39.278
00:52:17.051                             : en:00:52:17.051
00:58:13.782                             : en:00:58:13.782
01:05:49.988                             : en:01:05:49.988
01:10:28.683                             : en:01:10:28.683
01:14:35.388                             : en:01:14:35.388
01:20:14.560                             : en:01:20:14.560
01:24:46.915                             : en:01:24:46.915
01:31:11.925                             : en:01:31:11.925
01:38:23.648                             : en:01:38:23.648
01:41:02.640                             : en:01:41:02.640
Скриншоты:

Приятного просмотра!
[Профиль] [ЛС]

donald

Пол: Мужской

Стаж: 7 года 9 месяца

Сообщений: 173

Создавать темы 15-Дек-2013 19:47 (спустя 1 час 40 минуты)

[Цитировать]

Подбросил золотишко.
[Профиль] [ЛС]

Enigmatik ®

Пол: Мужской

Стаж: 8 года

Сообщений: 1138

Откуда: ✔ Оттуда ✔

Создавать темы 15-Дек-2013 19:59 (спустя 11 минуты)

[Цитировать]

donald, Спасибо!
[Профиль] [ЛС]
Показать сообщения:    
Ответить на тему

Текущее время: 07-Мар 13:01

Часовой пояс: UTC + 3



Вы не можете начинать темы
Вы не можете отвечать на сообщения
Вы не можете редактировать свои сообщения
Вы не можете удалять свои сообщения
Вы не можете голосовать в опросах
Вы не можете прикреплять файлы к сообщениям
Вы не можете скачивать файлы