Ромео и Джульетта / Romeo and Juliet (2013) WEB-DL [H.264/720p-LQ]

Ответить на тему
 
Автор Сообщение

messer20080 ®

Пол: Мужской

Стаж: 7 года 11 месяца

Сообщений: 1927

Создавать темы 15-Дек-2013 19:39

[Цитировать]

-Ромео и Джульетта / Romeo and Juliet (2013) WEB-DL
«Величайшая история любви всех времён»
- Год выпуска: 2013
Производство: Великобритания, Италия, Швейцария
Жанр: Драма, Мелодрама
Перевод: Дублированный (iTunes)
Субтитры: Отсутствуют-Дата мировой премьеры: 24 сентября 2013 (США, Лос-Анджелес, Калифорния)
Дата российской премьеры: 17 октября 2013, «Вольга»
Дата выхода DVD релиза: 17 декабря 2013, «Вольга»
Дата выхода Blu-Ray релиза: 17 декабря 2013, «Вольга»-Режиссер: Карло Карлей-Продюсер: Саймон Босанкет, Лоуренс Элман, Джулиан Феллоуз,-Актеры: Дуглас Бут, Хейли Стайнфелд, Дэмиэн Льюис, Коди Смит-МакФи, Эд Вествик, Пол Джаматти, Томас Арана, Наташа МакЭлхоун, Стеллан Скарсгард, Лесли Мэнвилл ...-Роли дублировали: Филипп Бледный, Лиза Арзамасова, Анатолий Белый, Александр Горчилин, Артур Бесчастный, Алексей Багдасаров, Илья Исаев, Вера Воронкова ...-Описание фильма:
Верона. Эпоха Раннего Возрождения. Юноша и девушка из враждующих семей влюбляются друг в друга. Рок не дает им быть вместе. Лишь смерть на пике запретной страсти помогает Ромео и Джульетте спасти свою любовь.-[kp]http://www.kinopoisk.ru/film/512326/[/kp] [imdb]http://www.imdb.com/title/tt1645131/[/imdb]
Продолжительность: 01:53:25
Качество видео: WEB-DL
Видеокодек: MPEG-4 AVC/H.264
Битрейт видео: ~ 3896 Кбит/сек
Размер кадра: 960 x 528@1280 x 528 (2.424) at 25.000 fps : 0.307 Bits/Pixel
Аудиокодек: AC3 5.1
Битрейт аудио: 384 Кбит/сек, 48,0 КГц
Дополнительно: Главы присутствуют

Трейлер / Ролик

[youtube]http://www.youtube.com/v/VHYOtsQGeZY&fs=1[/youtube]

Знаете ли вы, что...

• Пол Уэсли мог исполнить роль, которая в итоге досталась Тому Уисдому.
• Для сцены бала было привлечено много профессиональных танцоров.
• Фильм выпускается в год 90-летия маэстро Франко Дзеффирелли и 45-летия выхода на экраны его классической версии «Ромео и Джульетта» 1968 года.
• Логан Лерман, Сэм Клафлин, Джош Хатчерсон и Бенни Гар прослушивались на роль Ромео.
• На пробы для роли Джульетты в новой экранизации также приглашалась 18-летняя дочь Оливии Хасси (игравшей Джульетту в фильме 1968 г.) — актриса Индиа Айсли, но она отказалась от прослушивания.
• Значительная часть материала фильма была отснята в холодный период года — в феврале и марте, хотя по Шекспиру все события развиваются в разгар лета — в конце июля.
• В российском дубляже картины Ромео и Джульетту озвучивают Филипп Бледный и Лиза Арзамасова — они же исполняют роли главных героев в спектакле «Ромео и Джульетта» Театральной компании Сергея Алдонина.
• Фильм снят в тех же местах, где по тексту Шекспира разворачивается действие — на натуре и в настоящих исторических замках Вероны и Мантуи в Италии.
• На роль Джульетты хотели взять Лили Коллинз, но она покинула проект из-за несогласованности расписаний съемок.

MediaInfo:

Уникальный идентификатор                 : 220642036017648651064006964347766630537 (0xA5FE1C4433F9CE5F92C704707C98E889)
Полное имя                               : H:\Romeo.i.Dziuljeta.2013.D.WEB-DL.720p.mkv
Формат                                   : Matroska
Версия формата                           : Version 2
Размер файла                             : 3,46 Гбайт
Продолжительность                        : 1 ч. 53 м.
Общий поток                              : 4367 Кбит/сек
Дата кодирования                         : UTC 2013-12-12 20:23:29
Программа кодирования                    : mkvmerge v5.8.0 ('No Sleep / Pillow') built on Sep  2 2012 15:37:04
Библиотека кодирования                   : libebml v1.2.3 + libmatroska v1.3.0
Видео
Идентификатор                            : 1
Формат                                   : AVC
Формат/Информация                        : Advanced Video Codec
Профиль формата                          : [url=mailto:Main@L3.1]Main@L3.1[/url]
Параметр CABAC формата                   : Нет
Параметр ReFrames формата                : 2 кадра
Идентификатор кодека                     : V_MPEG4/ISO/AVC
Продолжительность                        : 1 ч. 53 м.
Битрейт                                  : 3896 Кбит/сек
Ширина                                   : 960 пикселей
Высота                                   : 528 пикселей
Соотношение сторон                       : 2,40:1
Режим частоты кадров                     : Постоянный
Частота кадров                           : 25,000 кадров/сек
Цветовое пространство                    : YUV
Субдискретизация насыщенности            : 4:2:0
Битовая глубина                          : 8 бит
Тип развёртки                            : Прогрессивная
Бит/(Пиксели*Кадры)                      : 0.307
Размер потока                            : 3,09 Гбайт (89%)
Язык                                     : English
Default                                  : Да
Forced                                   : Нет
Основные цвета                           : BT.709
Характеристики трансфера                 : BT.709
Коэффициенты матрицы                     : BT.709
Аудио
Идентификатор                            : 2
Формат                                   : AC-3
Формат/Информация                        : Audio Coding 3
Расширение режима                        : CM (complete main)
Параметр Endianness формата              : Big
Идентификатор кодека                     : A_AC3
Продолжительность                        : 1 ч. 53 м.
Вид битрейта                             : Постоянный
Битрейт                                  : 384 Кбит/сек
Каналы                                   : 6 каналов
Расположение каналов                     : Front: L C R, Side: L R, LFE
Частота                                  : 48,0 КГц
Битовая глубина                          : 16 бит
Метод сжатия                             : С потерями
Размер потока                            : 312 Мбайт (9%)
Язык                                     : Russian
Default                                  : Да
Forced                                   : Нет
Меню
00:00:00.000                             : en:Глава 1
00:05:36.000                             : en:Глава 2
00:10:36.000                             : en:Глава 3
00:15:38.000                             : en:Глава 4
00:20:40.000                             : en:Глава 5
00:25:43.000                             : en:Глава 6
00:30:47.000                             : en:Глава 7
00:35:55.000                             : en:Глава 8
00:40:55.000                             : en:Глава 9
00:45:58.000                             : en:Глава 10
00:51:14.000                             : en:Глава 11
00:56:19.000                             : en:Глава 12
01:01:21.000                             : en:Глава 13
01:06:23.000                             : en:Глава 14
01:11:29.000                             : en:Глава 15
01:16:30.000                             : en:Глава 16
01:21:33.000                             : en:Глава 17
01:26:43.000                             : en:Глава 18
01:31:43.000                             : en:Глава 19
01:36:44.000                             : en:Глава 20
01:41:49.000                             : en:Глава 21
Скриншоты:




[Профиль] [ЛС]
Показать сообщения:    
Ответить на тему

Текущее время: 26-Фев 01:37

Часовой пояс: UTC + 3



Вы не можете начинать темы
Вы не можете отвечать на сообщения
Вы не можете редактировать свои сообщения
Вы не можете удалять свои сообщения
Вы не можете голосовать в опросах
Вы не можете прикреплять файлы к сообщениям
Вы не можете скачивать файлы