Люди будущего / The Tomorrow People (Дэнни Кэннон, Фантастика, Драма)(2013) WEB-DLRip [сезон 1, серии 1-22 из 22] [LostFilm]

Ответить на тему
 
Автор Сообщение

messer20080 ®

Пол: Мужской

Стаж: 7 года 11 месяца

Сообщений: 1927

Создавать темы 16-Дек-2013 17:58

[Цитировать]

-Люди будущего / The Tomorrow People (2013) WEB-DLRip [сезон 1, серии 1-22 из 22] [LostFilm]- Год выпуска: 2013
Жанр: Фантастика, Драма
Перевод: Многоголосый закадровый, профессиональный(LostFilm)
Релиз группа:

Режиссер: Дэнни Кэннон
Актеры: Робби Амелл,Люк Митчелл,Аманда Кларк,Пейтон Лист,Мадлен Манток,Марк Пеллегрино,Аарон Йу,Сара Кларк,Джеффри Пирс,Питер Гринвуд.
Описание фильма:
Научно-фантастический проект, герои которого являются прототипом следующего «этапа эволюции человека». Свои способности к телепатии, телекинезу или телепортации, им приходится развивать в подростковом возрасте.
Сэмпл:
Качество видео: WEB-DLRip
Продолжительность: ~00:42:43 серия
Видеокодек: Xvid
Битрейт видео: ~1 591 Kbps
Размер кадра: 720x400
Частота кадров : 23.976 fps
Аудио Rus: 48 kHz, MPEG Layer 3, 2 ch, 192 Kbps

Список серий

01. Pilot / Пилот
02. In Too Deep / Погружение
03. Girl, Interrupted / Прерванная жизнь
04. Kill or Be Killed / Убей или умри
05. All Tomorrow's Parties / Все будущие вечеринки
06. Sorry for Your Loss / Примите соболезнования
07. Limbo / Чистилище
08. Thanatos / Танатос
09. Death's Door / На пороге смерти
10. The Citadel / Цитадель
11. Rumble / Вмешательство
12. Sitting Ducks / Живая мишень
13. Things Fall Apart / Все рушиться
14. Brother's Keeper / Сторож брату своему
15. Enemy of My Enemy / Враг моего врага
16. Superhero / Супергерой
17. Endgame / Эндшпиль
18. Smoke and Mirrors / Дым и зеркала
19. Modus Vivendi / Модус вивенди
20. A Sort of Homecoming / Что-то вроде возвращения домой
21. Kill Switch / Аварийное выключение
22. Son of Man / Сын человеческий

MI

General
Полное имя : D:\Новые фильмы\Люди будущего s1\The.Tomorrow.People.S01E01.rus.LostFilm.TV.avi
Формат : AVI
Формат/Информация : Audio Video Interleave
Размер файла : 548 MiB
Продолжительность : 42mn 43s
Режим общего битрейта : Variable
Общий поток : 1 792 Kbps
Программа кодирования : Nandub v1.0rc2
Библиотека кодирования : Nandub build 1853/release
Video
Идентификатор : 0
Формат : MPEG-4 Visual
Профиль формата : Simple@L3
Параметр BVOP формата : No
Параметр QPel формата : No
Параметр GMC формата : No warppoints
Параметр матрицы формата : Default (H.263)
Идентификатор кодека : XVID
Идентификатор кодека/Подсказка : XviD
Продолжительность : 42mn 43s
Битрейт : 1 591 Kbps
Ширина : 720 pixels
Высота : 400 pixels
Соотношение сторон : 16:9
Частота кадров : 23.976 fps
Цветовое пространство : YUV
Субдискретизация насыщенности : 4:2:0
Битовая глубина : 8 bits
Тип развёртки : Progressive
Метод сжатия : Lossy
Бит/(Пиксели*Кадры) : 0.230
Размер потока : 486 MiB (89%)
Библиотека кодирования : XviD 1.2.1 (UTC 2008-12-04)
Audio
Идентификатор : 1
Формат : MPEG Audio
Версия формата : Version 1
Профиль формата : Layer 3
Режим : Joint stereo
Расширение режима : MS Stereo
Идентификатор кодека : 55
Идентификатор кодека/Подсказка : MP3
Продолжительность : 42mn 42s
Вид битрейта : Variable
Битрейт : 192 Kbps
Каналы : 2 channels
Частота : 48.0 KHz
Метод сжатия : Lossy
Размер потока : 57.5 MiB (10%)
Выравнивание : Aligned on interleaves
Продолжительность промежутка : 24 ms (0.58 video frame)
Время предзагрузки промежутка : 494 ms
Библиотека кодирования : LAME3.97b
Настройки программы : -m j -V 4 -q 3 -lowpass 18.6 --abr 192

Внимание! Раздача ведётся путём добавления новых серий

Внимание! Раздача ведётся путём добавления новых серий; при каждом добавлении создаётся новый торрент.
Чтобы начать докачку новой серии, пользователям необходимо сделать следующее:
1. Остановить скачивание;
2. Удалить старый торрент у себя из клиента (старые серии удалять не надо);
3. Скачать новый торрент и запустить его у себя в клиенте вместо старого, при этом указать клиенту путь в старую папку куда и должно происходить скачивание новых серий. Ваш клиент при этом должен произвести хеширование (проверку) старой папки и будет докачивать только те серии, которых у вас ещё нет. Старые серии при этом не удаляются, а продолжают раздаваться! Eсли вы уже удалили старые серии, то предотвратить повторную закачку старых серий можно, отжав галочку в соответствующих местах при запуске нового торрента.
Скриншоты:

Время раздачи: 24/7


Последний раз редактировалось: messer20080 (2014-05-08 21:53), всего редактировалось 6 раз(а)
[Профиль] [ЛС]

messer20080 ®

Пол: Мужской

Стаж: 7 года 11 месяца

Сообщений: 1927

Создавать темы 16-Дек-2013 18:05 (спустя 6 минуты)

[Цитировать]

Релиз группа LostFilm осуществляет перевод данного сериала.
Не указывать ее никак нельзя, ибо это нарушает права авторства перевода.
[Профиль] [ЛС]

messer20080 ®

Пол: Мужской

Стаж: 7 года 11 месяца

Сообщений: 1927

Создавать темы 08-Май-2014 14:04 (спустя 4 месяца 22 дня)

[Цитировать]

Добавлены 10 - 22 серии.
[Профиль] [ЛС]
Показать сообщения:    
Ответить на тему

Текущее время: 01-Мар 12:50

Часовой пояс: UTC + 3



Вы не можете начинать темы
Вы не можете отвечать на сообщения
Вы не можете редактировать свои сообщения
Вы не можете удалять свои сообщения
Вы не можете голосовать в опросах
Вы не можете прикреплять файлы к сообщениям
Вы не можете скачивать файлы