Спящая красавица / Sleeping Beauty (Клайд Джероними / Clyde Geronimi) [1959 г., фэнтези, мелодрама, мюзикл, семейный, мультфильм, BDRip]

Ответить на тему
 
Автор Сообщение

messer20080 ®

Пол: Мужской

Стаж: 8 года

Сообщений: 1927

Создавать темы 18-Дек-2013 13:47

[Цитировать]

Спящая красавица / Sleeping Beauty«See It With Someone You Love.»- Год выпуска: 1959
Страна: США
Жанр: фэнтези, мелодрама, мюзикл, семейный, мультфильм
Продолжительность: 01:15:11
Перевод: Профессиональный (профессиональный полное доблирование) + Профессиональный (многоголосый, закадровый) + Оригинал отдельно
Русские субтитры: нет-Режиссер: Клайд Джероними / Clyde Geronimi-В ролях:
  • Мэри Коста
  • Билл Ширли
  • Элинор Одли
  • Верна Фелтон
  • Барбара Ладди
  • Барбара Джо Аллен
  • Тейлор Холмс
  • Билл Томпсон
  • Кэнди Кандидо
-
Описание: Давным-давно в далекой стране жили король с королевой. Когда у них родилась долгожданная дочь Аврора, в королевстве был устроен большой праздник, чтобы все могли по :)ствовать малютку. На бал пригласили и трех добрых фей — Флору, Фауну и Хорошую Погоду, а про злую колдунью Мэлифисент забыли.
Оскорбленная, она наложила на принцессу проклятье — в день своего 16-летия Аврора уколется о веретено и уснет вечным сном. Колдовство оказалось таким сильным, что добрые феи не смогли разрушить его. Но все же они спасли принцессу: она очнется ото сна после поцелуя прекрасного принца…
-[kp]http://www.kinopoisk.ru/film/8232/[/kp] [imdb]http://www.imdb.com/title/tt0053285/[/imdb]

Автор рипа: Pinki
Качество: BDRip
Формат: AVI
Видео кодек: XviD
Аудио кодек: AC3
Видео: 720x304 (2.37:1), 23.976 fps, XviD MPEG-4 ~2303 kbps avg, 0.44 bit/pixel
Аудио №1: 48 kHz, AC3 Dolby Digital, 2/0 (L,R) ch, ~448.00 kbps avg [Russian Dub]
Аудио №2: 48 kHz, AC3 Dolby Digital, 6 ch, ~448.00 kbps avg [Russian MVO]
Аудио №3: 48 kHz, AC3 Dolby Digital, 6 ch, ~448.00 kbps avg [English - original]
-

MediaInfo

General
Complete name : E:\Sleeping Beauty.1959.[torrents.ru]\Sleeping.Beauty.1959.RUS.ХviD.AC3.BDRip.avi
Format : AVI
Format/Info : Audio Video Interleave
File size : 1.45 GiB
Duration : 1h 15mn
Overall bit rate : 2 761 Kbps
Writing application : VirtualDubMod 1.5.10.2 (build 2540/release)
Writing library : VirtualDub build 32559/release
Video
ID : 0
Format : MPEG-4 Visual
Format profile : Advanced Simple@L5
Format settings, BVOP : 2
Format settings, QPel : No
Format settings, GMC : No warppoints
Format settings, Matrix : Default (H.263)
Muxing mode : Packed bitstream
Codec ID : XVID
Codec ID/Hint : XviD
Duration : 1h 15mn
Bit rate : 2 304 Kbps
Width : 720 pixels
Height : 304 pixels
Display aspect ratio : 2.35:1
Frame rate : 23.976 fps
Color space : YUV
Chroma subsampling : 4:2:0
Bit depth : 8 bits
Scan type : Progressive
Compression mode : Lossy
Bits/(Pixel*Frame) : 0.439
Stream size : 1.21 GiB (83%)
Writing library : XviD 1.2.0.dev47 (UTC 2006-11-01)
Audio
ID : 1
Format : AC-3
Format/Info : Audio Coding 3
Mode extension : CM (complete main)
Format settings, Endianness : Big
Codec ID : 2000
Duration : 1h 15mn
Bit rate mode : Constant
Bit rate : 448 Kbps
Channel count : 2 channels
Channel positions : Front: L R
Sampling rate : 48.0 KHz
Bit depth : 16 bits
Compression mode : Lossy
Stream size : 241 MiB (16%)
Alignment : Aligned on interleaves
Interleave, duration : 42 ms (1.00 video frame)
Interleave, preload duration : 512 ms
[Профиль] [ЛС]
Показать сообщения:    
Ответить на тему

Текущее время: 07-Мар 14:47

Часовой пояс: UTC + 3



Вы не можете начинать темы
Вы не можете отвечать на сообщения
Вы не можете редактировать свои сообщения
Вы не можете удалять свои сообщения
Вы не можете голосовать в опросах
Вы не можете прикреплять файлы к сообщениям
Вы не можете скачивать файлы