Выбор Софи / Софи делает выбор / Sophie's Choice (Алан Дж. Пакула / Alan J. Pakula) [1982 г., США, драма, BDRip] DVO

Ответить на тему
 
Автор Сообщение

donald ®

Пол: Мужской

Стаж: 7 года 9 месяца

Сообщений: 173

Создавать темы 18-Дек-2013 23:14

[Цитировать]

Выбор Софи / Sophie's Choice-Год выпуска: 1982
Страна: Великобритания, США
Жанр: драма, мелодрама
Продолжительность: 02:31:07
Перевод: Профессиональный (двухголосый, закадровый) НТВ+
Русские субтитры: нет
Оригинальная аудиодорожка: нет-Режиссер: Алан Дж. Пакула / Alan J. Pakula
В ролях: Мэрил Стрип, Кевин Клайн, Питер МакНикол, Рита Карин, Стивен Д. Ньюмен, Грета Теркен, Джош Мостел, Марселл Розенблатт, Мойше Розенфельд, Робин Бартлетт, Юджин Липински, Джон Ротмен, Джозеф Леон, Дэвид Уол, Нина Полан, Александр Сиротин, Арман Даан, Джозеф Тобин, Кортез Нэнс, Гюнтер Мария Халмер-Описание: Экранизация одноименного романа У. Стайрона о женщине из Польши, лишившейся в нацистском лагере мужа и детей и пытающейся найти силы, чтобы продолжать жить в послевоенной сытой и благополучной Америке.


Качество видео: BDRip
Формат видео: AVI
Видео кодек: XviD
Аудио кодек: AC3
Видео: 720x384 (1.88:1), 23.976 fps, XviD build 73 ~1868 kbps avg, 0.28 bit/pixel
Аудио: 48 kHz, AC3 Dolby Digital, 2/0 (L,R) ch, ~192.00 kbps avg

MediaInfo

Format : AVI
Format/Info : Audio Video Interleave
Format profile : OpenDML
File size : 2.18 GiB
Duration : 2h 31mn
Overall bit rate : 2 068 Kbps
Writing application : VirtualDubMod 1.5.10.2 (build 2540/release)
Writing library : VirtualDubMod build 2540/release
Video
ID : 0
Format : MPEG-4 Visual
Format profile : Advanced Simple@L5
Format settings, BVOP : 2
Format settings, QPel : No
Format settings, GMC : No warppoints
Format settings, Matrix : Custom
Codec ID : XVID
Codec ID/Hint : XviD
Duration : 2h 31mn
Bit rate : 1 864 Kbps
Width : 720 pixels
Height : 384 pixels
Display aspect ratio : 1.85:1
Frame rate : 23.976 fps
Color space : YUV
Chroma subsampling : 4:2:0
Bit depth : 8 bits
Scan type : Progressive
Compression mode : Lossy
Bits/(Pixel*Frame) : 0.281
Stream size : 1.97 GiB (90%)
Writing library : XviD 73
Audio
ID : 1
Format : AC-3
Format/Info : Audio Coding 3
Mode extension : CM (complete main)
Format settings, Endianness : Big
Codec ID : 2000
Duration : 2h 31mn
Bit rate mode : Constant
Bit rate : 192 Kbps
Channel count : 2 channels
Channel positions : Front: L R
Sampling rate : 48.0 KHz
Bit depth : 16 bits
Compression mode : Lossy
Stream size : 208 MiB (9%)
Alignment : Split accross interleaves
Interleave, duration : 42 ms (1.00 video frame)
Interleave, preload duration : 500 ms

Скриншоты


[Профиль] [ЛС]
Показать сообщения:    
Ответить на тему

Текущее время: 03-Мар 23:05

Часовой пояс: UTC + 3



Вы не можете начинать темы
Вы не можете отвечать на сообщения
Вы не можете редактировать свои сообщения
Вы не можете удалять свои сообщения
Вы не можете голосовать в опросах
Вы не можете прикреплять файлы к сообщениям
Вы не можете скачивать файлы