Война от первого лица (1 сезон, 10 серий из 10) / Ultimate Warfare (Криспин Рис / Crispin Reece) [2012, Документальный, история, реконструкция, SATRip]

Ответить на тему
 
Автор Сообщение

messer20080 ®

Пол: Мужской

Стаж: 8 года

Сообщений: 1927

Создавать темы 20-Дек-2013 12:48

[Цитировать]

Война от первого лица (1 сезон, 10 серий из 10) / Ultimate Warfare
Год выпуска: 2012
Страна: США, Discovery Channel
Жанр: Документальный, история, реконструкция
Продолжительность: 10 х ~ 00:44:12
Перевод: Профессиональный (одноголосый закадровый)
Режиссер: Криспин Рис / Crispin Reece
Описание: Новый сериал «Война от первого лица» позволяет зрителям побывать на полях известных сражений и увидеть реальные боевые действия глазами простых солдат. Discovery Channel предлагает вам свежий обзор самых интересных боевых конфликтов новейшей истории, позволяя взглянуть на военные действия под новым, необычным углом. С помощью передовых технологий и компьютерного моделирования каждый эпизод программы в подробностях воссоздает картину известных сражений, а комментируют тактические действия ведущие специалисты по военному делу и опытные ветераны, участвовавшие во многих конфликтах. «Война от первого лица» пытается полностью спроектировать любое сражение, превратив его в увлекательный и захватывающий рассказ. Тактические уловки, отважные герои, современное вооружение – на глазах зрителей все это превращается в увлекательные истории о солдатских буднях.
Доп. информация: SATRip by alf62 & awas99

качество: SATRip
формат: AVI
Видео: 720x400 (1.80:1), 25 fps, DivX, ~1801 kbps avg, 0.23 bit/pixel
Аудио: 44.100 kHz, MPEG Layer 3, 2 ch, ~128.00 kbps avg
Список выпусков/серий

№ 01. Фаллу́джа. Захват центра террора / Fallujah: The Taking of Terror Central

01. Фаллу́джа. Захват центра террора / Fallujah: The Taking of Terror Central
Описание: Это решающее сражение войны в Ираке. Перед американскими войсками стоит сложнейшая задача: они должны отбить город у повстанцев. Самый напряженный конфликт со времен Вьетнама.

MediaInfo

Война от первого лица\Vojna.ot.pervogo.lica.(S1).2012.DivX.SATRip.alf62.&.awas99\Vojna.ot.pervogo.lica.(S1.01.serija.iz.10).Falludzha.Zahvat.centra.terrora.2012.DivX.SATRip.alf62.&.awas99.avi
Format : AVI
Format/Info : Audio Video Interleave
File size : 596 MiB
Duration : 44mn 1s
Overall bit rate : 1 893 Kbps
Writing library : Boilsoft Joiner build 2411/release
Video
ID : 0
Format : MPEG-4 Visual
Format profile : Advanced Simple@L5
Format settings, BVOP : 2
Format settings, QPel : No
Format settings, GMC : No warppoints
Format settings, Matrix : Default (MPEG)
Codec ID : DX50
Codec ID/Hint : DivX 5
Duration : 44mn 1s
Bit rate : 1 755 Kbps
Width : 720 pixels
Height : 400 pixels
Display aspect ratio : 16:9
Frame rate : 25.000 fps
Color space : YUV
Chroma subsampling : 4:2:0
Bit depth : 8 bits
Scan type : Progressive
Compression mode : Lossy
Bits/(Pixel*Frame) : 0.244
Stream size : 553 MiB (93%)
Writing library : XviD 73
Audio
ID : 1
Format : MPEG Audio
Format version : Version 1
Format profile : Layer 3
Codec ID : 55
Codec ID/Hint : MP3
Duration : 44mn 1s
Bit rate mode : Constant
Bit rate : 128 Kbps
Channel(s) : 2 channels
Sampling rate : 48.0 KHz
Compression mode : Lossy
Delay relative to video : 8ms
Stream size : 40.3 MiB (7%)
Alignment : Split accross interleaves
Interleave, duration : 40 ms (1.00 video frame)
Interleave, preload duration : 480 ms

Скриншоты


№ 02 Хюе: самая кровопролитная битва Вьетнамской войны / Hue: Vietnam's Bloodiest Battle

Хюе: самая кровопролитная битва Вьетнамской войны / Hue: Vietnam's Bloodiest Battle
Описание: 30-31 января 1968 года силы Вьетнамской Народной Армии (ВНА) захватили старую столицу Вьетнама - Хюэ. Морская пехота США должна была отвоевать город. Сражение велось характеризовалось ожесточёнными уличными боями, сопровождавшимися большими разрушениями и жертвами среди мирного населения.

MediaInfo

Format : AVI
Format/Info : Audio Video Interleave
File size : 572 MiB
Duration : 44mn 11s
Overall bit rate : 1 809 Kbps
Writing library : Boilsoft Joiner build 2411/release
Video
ID : 0
Format : MPEG-4 Visual
Format profile : Advanced Simple@L5
Format settings, BVOP : 2
Format settings, QPel : No
Format settings, GMC : No warppoints
Format settings, Matrix : Default (MPEG)
Codec ID : DX50
Codec ID/Hint : DivX 5
Duration : 44mn 11s
Bit rate : 1 672 Kbps
Width : 720 pixels
Height : 400 pixels
Display aspect ratio : 16:9
Frame rate : 25.000 fps
Color space : YUV
Chroma subsampling : 4:2:0
Bit depth : 8 bits
Scan type : Progressive
Compression mode : Lossy
Bits/(Pixel*Frame) : 0.232
Stream size : 528 MiB (92%)
Writing library : XviD 73
Audio
ID : 1
Format : MPEG Audio
Format version : Version 1
Format profile : Layer 3
Codec ID : 55
Codec ID/Hint : MP3
Duration : 44mn 11s
Bit rate mode : Constant
Bit rate : 128 Kbps
Channel(s) : 2 channels
Sampling rate : 44.1 KHz
Compression mode : Lossy
Delay relative to video : 1ms
Stream size : 40.5 MiB (7%)
Alignment : Split accross interleaves
Interleave, duration : 40 ms (1.00 video frame)
Interleave, preload duration : 500 ms

Скриншоты

№ 03. Кандагар: несмотря ни на что / Kandahar: Against All Odds

03. Кандагар: несмотря ни на что / Kandahar: Against All Odds
Описание: Реальные боевые действия глазами солдата. Американский спецназ сражается с крупной группировкой талибов за контроль над Кандагаром.

MediaInfo

Война от первого лица\Vojna.ot.pervogo.lica.(S1).2012.DivX.SATRip.alf62.&.awas99\Vojna.ot.pervogo.lica.(S1.03.serija.iz.10).Kandagar.nesmotrja.ni.na.chto.2012.DivX.SATRip.alf62.&.awas99.avi
Format : AVI
Format/Info : Audio Video Interleave
File size : 610 MiB
Duration : 44mn 3s
Overall bit rate : 1 937 Kbps
Writing library : Boilsoft Joiner build 2411/release
Video
ID : 0
Format : MPEG-4 Visual
Format profile : Advanced Simple@L5
Format settings, BVOP : 2
Format settings, QPel : No
Format settings, GMC : No warppoints
Format settings, Matrix : Default (MPEG)
Codec ID : DX50
Codec ID/Hint : DivX 5
Duration : 44mn 3s
Bit rate : 1 799 Kbps
Width : 704 pixels
Height : 400 pixels
Display aspect ratio : 16:9
Frame rate : 25.000 fps
Color space : YUV
Chroma subsampling : 4:2:0
Bit depth : 8 bits
Scan type : Progressive
Compression mode : Lossy
Bits/(Pixel*Frame) : 0.256
Stream size : 567 MiB (93%)
Writing library : XviD 73
Audio
ID : 1
Format : MPEG Audio
Format version : Version 1
Format profile : Layer 3
Codec ID : 55
Codec ID/Hint : MP3
Duration : 44mn 3s
Bit rate mode : Constant
Bit rate : 128 Kbps
Channel(s) : 2 channels
Sampling rate : 48.0 KHz
Compression mode : Lossy
Delay relative to video : 16ms
Stream size : 40.3 MiB (7%)
Alignment : Split accross interleaves
Interleave, duration : 40 ms (1.00 video frame)
Interleave, preload duration : 500 ms

Скриншоты


№ 04. Багдад: молниеносное нападение / Baghdad: Thunder Runs

04. Багдад: молниеносное нападение / Baghdad: Thunder Runs
Описание: Танковый батальон врывается в Багдад под властью Саддама Хуссейна, начиная одно из самых важных сражений войны в Ираке.

MediaInfo

\Rutracker.org\Война от первого лица\Vojna.ot.pervogo.lica.(S1).2012.DivX.SATRip.alf62.&.awas99\Vojna.ot.pervogo.lica.(S1.04.serija.iz.10).Bagdad.molnienosnoe.napadenie.2012.DivX.SATRip.alf62.&.awas99.avi
Format : AVI
Format/Info : Audio Video Interleave
File size : 571 MiB
Duration : 44mn 4s
Overall bit rate : 1 813 Kbps
Writing library : Boilsoft Joiner build 2411/release
Video
ID : 0
Format : MPEG-4 Visual
Format profile : Advanced Simple@L5
Format settings, BVOP : 2
Format settings, QPel : No
Format settings, GMC : No warppoints
Format settings, Matrix : Default (MPEG)
Codec ID : DX50
Codec ID/Hint : DivX 5
Duration : 44mn 4s
Bit rate : 1 675 Kbps
Width : 720 pixels
Height : 400 pixels
Display aspect ratio : 16:9
Frame rate : 25.000 fps
Color space : YUV
Chroma subsampling : 4:2:0
Bit depth : 8 bits
Scan type : Progressive
Compression mode : Lossy
Bits/(Pixel*Frame) : 0.233
Stream size : 528 MiB (92%)
Writing library : XviD 73
Audio
ID : 1
Format : MPEG Audio
Format version : Version 1
Format profile : Layer 3
Codec ID : 55
Codec ID/Hint : MP3
Duration : 44mn 4s
Bit rate mode : Constant
Bit rate : 128 Kbps
Channel(s) : 2 channels
Sampling rate : 48.0 KHz
Compression mode : Lossy
Stream size : 40.3 MiB (7%)
Alignment : Split accross interleaves
Interleave, duration : 40 ms (1.00 video frame)
Interleave, preload duration : 500 ms

№ 05. Залив Лейте: отвага моряков / Leyte Gulf: Courage at Sea.

05. Залив Лейте: отвага моряков / Leyte Gulf: Courage at Sea.
Описание: В 1944 году, когда война бушевала в Тихом океане, войска США вошли в залив Лейте с амбициозной целью — выгнать Японию с Филиппинских островов. Удалось ли им это?

MediaInfo

Rutracker.org\Война от первого лица\Vojna.ot.pervogo.lica.(S1).2012.DivX.SATRip.alf62.&.awas99\Vojna.ot.pervogo.lica.(S1.05.serija.iz.10). Zaliv.Lejte.otvaga.morjakov.2012.DivX.SATRip.alf62.&.awas99.avi
Format : AVI
Format/Info : Audio Video Interleave
File size : 614 MiB
Duration : 44mn 16s
Overall bit rate : 1 937 Kbps
Writing library : Boilsoft Joiner build 2411/release
Video
ID : 0
Format : MPEG-4 Visual
Format profile : Advanced Simple@L5
Format settings, BVOP : 2
Format settings, QPel : No
Format settings, GMC : No warppoints
Format settings, Matrix : Default (MPEG)
Codec ID : DX50
Codec ID/Hint : DivX 5
Duration : 44mn 16s
Bit rate : 1 800 Kbps
Width : 720 pixels
Height : 400 pixels
Display aspect ratio : 16:9
Frame rate : 25.000 fps
Color space : YUV
Chroma subsampling : 4:2:0
Bit depth : 8 bits
Scan type : Progressive
Compression mode : Lossy
Bits/(Pixel*Frame) : 0.250
Stream size : 570 MiB (93%)
Writing library : XviD 73
Audio
ID : 1
Format : MPEG Audio
Format version : Version 1
Format profile : Layer 3
Codec ID : 55
Codec ID/Hint : MP3
Duration : 44mn 16s
Bit rate mode : Constant
Bit rate : 128 Kbps
Channel(s) : 2 channels
Sampling rate : 48.0 KHz
Compression mode : Lossy
Stream size : 40.5 MiB (7%)
Alignment : Aligned on interleaves
Interleave, duration : 40 ms (1.00 video frame)
Interleave, preload duration : 480 ms
Writing library : LAME3.99r
Encoding settings : -m s -V 4 -q 2 -lowpass 17 -b 128

Скриншоты


№ 06 Кхесань: морская пехота в осаде / Khe Sanh: Marines Under Siege

Кхесань: морская пехота в осаде / Khe Sanh: Marines Under Siege
Описание: Кхесань: морская пехота в осаде / Khe Sanh: Marines Under Siege. Осада Кхесани является одним из наиболее известных и знаковых сражений Вьетнамской войны. По оценке американской историографии, осада Кхесани стала самым долгим сражением войны с участием сил США и завершилась победой оборонявшей базу морской пехоты. Позднее база была оставлена, что позволило утверждать о своей победе и вьетнамской стороне.

MediaInfo

(S1.06.serija.iz.10).Khesan.morskaja.pehota.v.osade.2012.DivX.SATRip.alf62.&.awas99.avi
Format : AVI
Format/Info : Audio Video Interleave
File size : 564 MiB
Duration : 44mn 11s
Overall bit rate : 1 786 Kbps
Writing library : Boilsoft Joiner build 2411/release
Video
ID : 0
Format : MPEG-4 Visual
Format profile : Advanced Simple@L5
Format settings, BVOP : 2
Format settings, QPel : No
Format settings, GMC : No warppoints
Format settings, Matrix : Default (MPEG)
Codec ID : DX50
Codec ID/Hint : DivX 5
Duration : 44mn 11s
Bit rate : 1 648 Kbps
Width : 720 pixels
Height : 400 pixels
Display aspect ratio : 16:9
Frame rate : 25.000 fps
Color space : YUV
Chroma subsampling : 4:2:0
Bit depth : 8 bits
Scan type : Progressive
Compression mode : Lossy
Bits/(Pixel*Frame) : 0.229
Stream size : 521 MiB (92%)
Writing library : XviD 73
Audio
ID : 1
Format : MPEG Audio
Format version : Version 1
Format profile : Layer 3
Codec ID : 55
Codec ID/Hint : MP3
Duration : 44mn 11s
Bit rate mode : Constant
Bit rate : 128 Kbps
Channel(s) : 2 channels
Sampling rate : 44.1 KHz
Compression mode : Lossy
Delay relative to video : 9ms
Stream size : 40.5 MiB (7%)
Alignment : Split accross interleaves
Interleave, duration : 40 ms (1.00 video frame)
Interleave, preload duration : 500 ms

Скриншоты


№ 07. Мидуэй: возвращение контроля над Тихим океаном / Midway: Taking Back the Pacific.

07. Мидуэй: возвращение контроля над Тихим океаном / Midway: Taking Back the Pacific.
Описание: Последняя отчаянная попытка сопротивления немцев во Второй мировой. Гитлер все поставил на карту, бросив в атаку более четверти миллиона немецких солдат. Американская армия сталкивается с превосходящими силами противника в глубоких снегах Арденнского леса. Далее следует кровавая битва - битва за «Выступ».

MediaInfo

\Rutracker.org\Война от первого лица\Vojna.ot.pervogo.lica.(S1).2012.DivX.SATRip.alf62.&.awas99\Vojna.ot.pervogo.lica.(S1.07.serija.iz.10).Midujej.vozvrashhenie.kontrolja.2012.DivX.SATRip.alf62.&.awas99.avi
Format : AVI
Format/Info : Audio Video Interleave
File size : 615 MiB
Duration : 44mn 8s
Overall bit rate : 1 948 Kbps
Writing library : Boilsoft Joiner build 2411/release
Video
ID : 0
Format : MPEG-4 Visual
Format profile : Advanced Simple@L5
Format settings, BVOP : 2
Format settings, QPel : No
Format settings, GMC : No warppoints
Format settings, Matrix : Default (MPEG)
Codec ID : DX50
Codec ID/Hint : DivX 5
Duration : 44mn 8s
Bit rate : 1 811 Kbps
Width : 720 pixels
Height : 400 pixels
Display aspect ratio : 16:9
Frame rate : 25.000 fps
Color space : YUV
Chroma subsampling : 4:2:0
Bit depth : 8 bits
Scan type : Progressive
Compression mode : Lossy
Bits/(Pixel*Frame) : 0.251
Stream size : 572 MiB (93%)
Writing library : XviD 73
Audio
ID : 1
Format : MPEG Audio
Format version : Version 1
Format profile : Layer 3
Codec ID : 55
Codec ID/Hint : MP3
Duration : 44mn 8s
Bit rate mode : Constant
Bit rate : 128 Kbps
Channel(s) : 2 channels
Sampling rate : 48.0 KHz
Compression mode : Lossy
Delay relative to video : 8ms
Stream size : 40.4 MiB (7%)
Alignment : Split accross interleaves
Interleave, duration : 40 ms (1.00 video frame)
Interleave, preload duration : 500 ms

Скриншоты


№ 08. Окинава: островная крепость / Okinawa: Island Fortress.

08. Окинава: островная крепость / Okinawa: Island Fortress.
Описание:
Это решающее морское сражение Второй мировой войны, произошедшее в июне 1942 года. Победа флота США над Объединённым флотом Японии стала поворотной точкой в войне на Тихом океане. Японский флот, потерявший 4 тяжёлых авианосца, 248 самолётов и лучших пилотов, навсегда лишился возможности эффективно действовать вне зон прикрытия береговой авиации.

MediaInfo

Война от первого лица\Vojna.ot.pervogo.lica.(S1).2012.DivX.SATRip.alf62.&.awas99\Vojna.ot.pervogo.lica.(S1.08.serija.iz.10).Srazhenie.za.Okinavu.2012.DivX.SATRip.alf62.&.awas99.avi
Format : AVI
Format/Info : Audio Video Interleave
File size : 618 MiB
Duration : 43mn 39s
Overall bit rate : 1 980 Kbps
Writing library : Boilsoft Joiner build 2411/release
Video
ID : 0
Format : MPEG-4 Visual
Format profile : Advanced Simple@L5
Format settings, BVOP : 2
Format settings, QPel : No
Format settings, GMC : No warppoints
Format settings, Matrix : Default (MPEG)
Codec ID : DX50
Codec ID/Hint : DivX 5
Duration : 43mn 39s
Bit rate : 1 843 Kbps
Width : 720 pixels
Height : 400 pixels
Display aspect ratio : 16:9
Frame rate : 25.000 fps
Color space : YUV
Chroma subsampling : 4:2:0
Bit depth : 8 bits
Scan type : Progressive
Compression mode : Lossy
Bits/(Pixel*Frame) : 0.256
Stream size : 575 MiB (93%)
Writing library : XviD 73
Audio
ID : 1
Format : MPEG Audio
Format version : Version 1
Format profile : Layer 3
Codec ID : 55
Codec ID/Hint : MP3
Duration : 43mn 38s
Bit rate mode : Constant
Bit rate : 128 Kbps
Channel count : 2 channels
Sampling rate : 48.0 KHz
Compression mode : Lossy
Delay relative to video : 8ms
Stream size : 40.0 MiB (6%)
Alignment : Split accross interleaves
Interleave, duration : 40 ms (1.00 video frame)
Interleave, preload duration : 500 ms

Скриншоты

№ 09. Чосин: единственный выход / Chosin: One Way Out.

09. Чосин: единственный выход / Chosin: One Way Out.
Описание: Это самое жестокое сражение в военной истории Америки. 17 тыс. американских морпехов пересекают 38-ую параллель, чтобы отрезать силы коммунистов. Попав в ловушку превосходящих сил Китая, они должны пробиться из окружения или умереть.

MediaInfo

Война от первого лица\Vojna.ot.pervogo.lica.(S1).2012.DivX.SATRip.alf62.&.awas99\Vojna.ot.pervogo.lica.(S1.09.serija.iz.10).Koreja.Bitva.pri.vodohranilishhe.2012.DivX.SATRip.alf62.&.awas99.avi
Format : AVI
Format/Info : Audio Video Interleave
File size : 586 MiB
Duration : 43mn 42s
Overall bit rate : 1 874 Kbps
Writing library : Boilsoft Joiner build 2411/release
Video
ID : 0
Format : MPEG-4 Visual
Format profile : Advanced Simple@L5
Format settings, BVOP : 2
Format settings, QPel : No
Format settings, GMC : No warppoints
Format settings, Matrix : Default (MPEG)
Codec ID : DX50
Codec ID/Hint : DivX 5
Duration : 43mn 42s
Bit rate : 1 736 Kbps
Width : 720 pixels
Height : 400 pixels
Display aspect ratio : 16:9
Frame rate : 25.000 fps
Color space : YUV
Chroma subsampling : 4:2:0
Bit depth : 8 bits
Scan type : Progressive
Compression mode : Lossy
Bits/(Pixel*Frame) : 0.241
Stream size : 543 MiB (93%)
Writing library : XviD 73
Audio
ID : 1
Format : MPEG Audio
Format version : Version 1
Format profile : Layer 3
Codec ID : 55
Codec ID/Hint : MP3
Duration : 43mn 41s
Bit rate mode : Constant
Bit rate : 128 Kbps
Channel count : 2 channels
Sampling rate : 44.1 KHz
Compression mode : Lossy
Delay relative to video : 95ms
Stream size : 40.0 MiB (7%)
Alignment : Split accross interleaves
Interleave, duration : 40 ms (1.00 video frame)
Interleave, preload duration : 500 ms

Скриншоты


№ 10. Битва в Арденах / Bulge: Holding the Line.

10. Битва в Арденах / Bulge: Holding the Line.
Описание:
Последняя отчаянная попытка сопротивления немцев во Второй мировой. Гитлер все поставил на карту, бросив в атаку более четверти миллиона немецких солдат. Американская армия сталкивается с превосходящими силами противника в глубоких снегах Арденнского леса. Далее следует кровавая битва - битва за «Выступ».

MediaInfo

Война от первого лица\Vojna.ot.pervogo.lica.(S1).2012.DivX.SATRip.alf62.&.awas99\Vojna.ot.pervogo.lica.(S1.10.serija.iz.10).Bitva.v.Ardenah.2012.DivX.SATRip.alf62.&.awas99.avi
Format : AVI
Format/Info : Audio Video Interleave
File size : 623 MiB
Duration : 44mn 1s
Overall bit rate : 1 977 Kbps
Writing library : Boilsoft Joiner build 2411/release
Video
ID : 0
Format : MPEG-4 Visual
Format profile : Advanced Simple@L5
Format settings, BVOP : 2
Format settings, QPel : No
Format settings, GMC : No warppoints
Format settings, Matrix : Default (MPEG)
Codec ID : DX50
Codec ID/Hint : DivX 5
Duration : 44mn 1s
Bit rate : 1 840 Kbps
Width : 720 pixels
Height : 400 pixels
Display aspect ratio : 16:9
Frame rate : 25.000 fps
Color space : YUV
Chroma subsampling : 4:2:0
Bit depth : 8 bits
Scan type : Progressive
Compression mode : Lossy
Bits/(Pixel*Frame) : 0.255
Stream size : 579 MiB (93%)
Writing library : XviD 73
Audio
ID : 1
Format : MPEG Audio
Format version : Version 1
Format profile : Layer 3
Codec ID : 55
Codec ID/Hint : MP3
Duration : 44mn 1s
Bit rate mode : Constant
Bit rate : 128 Kbps
Channel count : 2 channels
Sampling rate : 44.1 KHz
Compression mode : Lossy
Delay relative to video : 2ms
Stream size : 40.3 MiB (6%)
Alignment : Split accross interleaves
Interleave, duration : 40 ms (1.00 video frame)
Interleave, preload duration : 500 ms

Скриншоты

[Профиль] [ЛС]
Показать сообщения:    
Ответить на тему

Текущее время: 09-Мар 07:09

Часовой пояс: UTC + 3



Вы не можете начинать темы
Вы не можете отвечать на сообщения
Вы не можете редактировать свои сообщения
Вы не можете удалять свои сообщения
Вы не можете голосовать в опросах
Вы не можете прикреплять файлы к сообщениям
Вы не можете скачивать файлы