Подъем с глубины / Deep Rising (1998) BDRemux [1080p]

Ответить на тему
 
Автор Сообщение

crown ®

Пол: Не указан

Создавать темы 21-Дек-2013 13:25

[Цитировать]

-Подъем с глубины / Deep Rising (1998) BDRemux [1080p]- Год выпуска: 1998
Производство: США, Канада
Жанр: Боевик, Фантастика, Ужасы
Описание фильма:
Банда наемников отправляется на перехват океанского пассажирского лайнера с целью захвата драгоценностей и денег. Вооруженные до зубов, они рассчитывают на успех этой тщательно спланированной операции. Но боевая уверенность захватчиков сменяется ужасом перед небывалыми чудовищами, устроившими пир на корабле! У этих монстров здесь не было противников! И кровь тысяч людей не смогла утолить их жажду!
Режиссер: Стивен Соммерс
Актеры: Трит Уильямс, Фамке Янссен, Энтони Хилд, Кевин Дж. О’Коннор, Уэс Студи, Деррик О’Коннор, Джейсон Флеминг, Клифф Кёртис, Клифтон Пауэлл
Продолжительность: 01:46:08
Качество видео: BDRemux (1080p)
Перевод: Профессиональный (двухголосый закадровый) West R5, Авторский (одноголосый закадровый) Гаврилов, Авторский (одноголосый закадровый) Живов, Профессиональный (двухголосый закадровый) HTB+, Профессиональный (многоголосый закадровый) OPT
Язык субтитров: Русский, английский
Вид субтитров: Вшитые отключаемые

Видеокодек: MPEG-4 AVC/H.264
Битрейт видео: ~19000 kbps
Размер кадра: 1920x1080
Аудио 1: Русский: 48 kHz, AC3, 3/2 (L,C,R,l,r) + LFE ch, ~384.00 kbps avg - двухголосый (West Multimedia) R5
Аудио 2: Русский: 48 kHz/24-bit, DTS-HD MA 5.1, ~4629.00 kbps avg (DTS Core: 5.1 / 48 kHz / 1509 kbps / 24-bit) - одноголосый (Гаврилов)
Аудио 3: Русский: 48 kHz, AC3, 3/2 (L,C,R,l,r) + LFE ch, 384.00 kbps - одноголосый (Живов 1)
Аудио 4: Русский: 48 kHz, AC3, 3/2 (L,C,R,l,r) + LFE ch, 384.00 kbps - одноголосый (Живов 2)
Аудио 5: Русский: 48 kHz, AC3, 2/0 (L,R) ch, 192.00 kbps - двухголосый (НТВ+)
Аудио 6: Русский: 48 kHz, AC3, 2/0 (L,R) ch, 192.00 kbps - многоголосый (ОРТ)
Аудио 7: Английский: 48 kHz/24-bit, DTS-HD MA 5.1, ~4623.00 kbps avg (DTS Core: 5.1 / 48 kHz / 1509 kbps / 24-bit) - Original

MI

Уникальный идентификатор : 175925663375138814079945790931787170711 (0x845A0CE0FCCD120490D136805391C397)
Полное имя : Deep.Rising.1998.BD-Remux.1080p.DTS-HD.MA-Panas.mkv
Формат : Matroska
Версия формата : Version 2
Размер файла : 22,1 Гбайт
Продолжительность : 1 ч. 46 м.
Режим общего битрейта : Переменный
Общий поток : 29,8 Мбит/сек
Дата кодирования : UTC 2013-02-20 18:10:57
Программа кодирования : mkvmerge v4.9.1 ('Ich will') built on Jul 11 2011 23:53:15
Библиотека кодирования : libebml v1.2.1 + libmatroska v1.1.1
Attachment : Yes
Видео
Идентификатор : 1
Формат : AVC
Формат/Информация : Advanced Video Codec
Профиль формата : High@L4.1
Параметр CABAC формата : Да
Параметр ReFrames формата : 4 кадра
Идентификатор кодека : V_MPEG4/ISO/AVC
Продолжительность : 1 ч. 46 м.
Вид битрейта : Переменный
Максимальный битрейт : 25,0 Мбит/сек
Ширина : 1920 пикселей
Высота : 1080 пикселей
Соотношение сторон : 16:9
Режим частоты кадров : Постоянный
Частота кадров : 23,976 кадра/сек
Стандарт вещания : NTSC
Цветовое пространство : YUV
Субдискретизация насыщенности : 4:2:0
Битовая глубина : 8 бит
Тип развёртки : Прогрессивная
Заголовок : Deep Rising (1998)
Default : Да
Forced : Нет
Основные цвета : BT.709
Характеристики трансфера : BT.709
Коэффициенты матрицы : BT.709
Аудио #1
Идентификатор : 2
Формат : AC-3
Формат/Информация : Audio Coding 3
Расширение режима : CM (complete main)
Параметр Endianness формата : Big
Идентификатор кодека : A_AC3
Продолжительность : 1 ч. 46 м.
Вид битрейта : Постоянный
Битрейт : 384 Кбит/сек
Каналы : 6 каналов
Расположение каналов : Front: L C R, Side: L R, LFE
Частота : 48,0 КГц
Битовая глубина : 16 бит
Метод сжатия : С потерями
Размер потока : 292 Мбайт (1%)
Заголовок : West
Язык : Russian
Default : Да
Forced : Нет
Аудио #2
Идентификатор : 3
Формат : DTS
Формат/Информация : Digital Theater Systems
Профиль формата : MA / Core
Режим : 16
Параметр Endianness формата : Big
Идентификатор кодека : A_DTS
Продолжительность : 1 ч. 46 м.
Вид битрейта : Переменный
Битрейт : Неизвестно / 1509 Кбит/сек
Каналы : 6 каналов
Расположение каналов : Front: L C R, Side: L R, LFE
Частота : 48,0 КГц
Битовая глубина : 24 бит
Метод сжатия : Без потерь / Lossy
Заголовок : Gavrilov
Язык : Russian
Default : Нет
Forced : Нет
Аудио #3
Идентификатор : 4
Формат : AC-3
Формат/Информация : Audio Coding 3
Расширение режима : CM (complete main)
Параметр Endianness формата : Big
Идентификатор кодека : A_AC3
Продолжительность : 1 ч. 46 м.
Вид битрейта : Постоянный
Битрейт : 384 Кбит/сек
Каналы : 6 каналов
Расположение каналов : Front: L C R, Side: L R, LFE
Частота : 48,0 КГц
Битовая глубина : 16 бит
Метод сжатия : С потерями
Размер потока : 292 Мбайт (1%)
Заголовок : Zivov 1
Язык : Russian
Default : Нет
Forced : Нет
Аудио #4
Идентификатор : 5
Формат : AC-3
Формат/Информация : Audio Coding 3
Расширение режима : CM (complete main)
Параметр Endianness формата : Big
Идентификатор кодека : A_AC3
Продолжительность : 1 ч. 46 м.
Вид битрейта : Постоянный
Битрейт : 384 Кбит/сек
Каналы : 6 каналов
Расположение каналов : Front: L C R, Side: L R, LFE
Частота : 48,0 КГц
Битовая глубина : 16 бит
Метод сжатия : С потерями
Размер потока : 292 Мбайт (1%)
Заголовок : Zivov 2
Язык : Russian
Default : Нет
Forced : Нет
Аудио #5
Идентификатор : 6
Формат : AC-3
Формат/Информация : Audio Coding 3
Расширение режима : CM (complete main)
Параметр Endianness формата : Big
Идентификатор кодека : A_AC3
Продолжительность : 1 ч. 46 м.
Вид битрейта : Постоянный
Битрейт : 192 Кбит/сек
Каналы : 2 канала
Расположение каналов : Front: L R
Частота : 48,0 КГц
Битовая глубина : 16 бит
Метод сжатия : С потерями
Размер потока : 146 Мбайт (1%)
Заголовок : HTB
Язык : Russian
Default : Нет
Forced : Нет
Аудио #6
Идентификатор : 7
Формат : AC-3
Формат/Информация : Audio Coding 3
Расширение режима : CM (complete main)
Параметр Endianness формата : Big
Идентификатор кодека : A_AC3
Продолжительность : 1 ч. 46 м.
Вид битрейта : Постоянный
Битрейт : 192 Кбит/сек
Каналы : 2 канала
Расположение каналов : Front: L R
Частота : 48,0 КГц
Битовая глубина : 16 бит
Метод сжатия : С потерями
Размер потока : 146 Мбайт (1%)
Заголовок : OPT
Язык : Russian
Default : Нет
Forced : Нет
Аудио #7
Идентификатор : 8
Формат : DTS
Формат/Информация : Digital Theater Systems
Профиль формата : MA / Core
Режим : 16
Параметр Endianness формата : Big
Идентификатор кодека : A_DTS
Продолжительность : 1 ч. 46 м.
Вид битрейта : Переменный
Битрейт : Неизвестно / 1509 Кбит/сек
Каналы : 6 каналов
Расположение каналов : Front: L C R, Side: L R, LFE
Частота : 48,0 КГц
Битовая глубина : 24 бит
Метод сжатия : Без потерь / Lossy
Заголовок : Original
Язык : English
Default : Нет
Forced : Нет
Текст #1
Идентификатор : 9
Формат : UTF-8
Идентификатор кодека : S_TEXT/UTF8
Идентификатор кодека/Информация : UTF-8 Plain Text
Заголовок : Russian
Язык : Russian
Default : Нет
Forced : Нет
Текст #2
Идентификатор : 10
Формат : UTF-8
Идентификатор кодека : S_TEXT/UTF8
Идентификатор кодека/Информация : UTF-8 Plain Text
Заголовок : English
Язык : English
Default : Нет
Forced : Нет
Меню
00:00:00.000 : en:00:00:00.000
00:08:57.412 : en:00:08:57.412
00:17:29.423 : en:00:17:29.423
00:26:46.188 : en:00:26:46.188
00:37:03.888 : en:00:37:03.888
00:45:13.544 : en:00:45:13.544
00:56:11.326 : en:00:56:11.326
01:06:52.175 : en:01:06:52.175
01:17:26.433 : en:01:17:26.433
01:25:07.978 : en:01:25:07.978
01:31:15.470 : en:01:31:15.470
01:38:28.236 : en:01:38:28.236
Скриншоты:
 
Показать сообщения:    
Ответить на тему

Текущее время: 25-Фев 19:57

Часовой пояс: UTC + 3



Вы не можете начинать темы
Вы не можете отвечать на сообщения
Вы не можете редактировать свои сообщения
Вы не можете удалять свои сообщения
Вы не можете голосовать в опросах
Вы не можете прикреплять файлы к сообщениям
Вы не можете скачивать файлы