Кулинар 2 (2013) WEB-DLRip [20 серий из 20]

Ответить на тему
 
Автор Сообщение

Viktor59 ®

Пол: Мужской

Стаж: 8 года

Сообщений: 886

Откуда: Измаил

Создавать темы 21-Дек-2013 16:17

[Цитировать]

-Кулинар 2 (2013) WEB-DLRip [20 серии из 20]- Русское название: Кулинар 2
Выпущено: Украина, Star Media
Год выпуска: 2013
Жанр: Приключения
Перевод: Оригинал (Русский)
Субтитры: Отсутствуют

Дата российской премьеры: 2 декабря 2013
Режиссер: Андрей Иванов
Актеры: Игорь Ботвин, Сергей Гамов, Роман Агеев, Игорь Ламба, Светлана Цвиченко, Кирилл Капица, Андрей Аверков, Юрий Уткин, Ольга Белявская, Евгений Сиротин, Александр Глинский, Рафаил Эйвазов, Денис Кириллов, Владимир Космидайло, Анатолий Ильченко, Александр Мосолов, Геннадий Макоев, Сергей Шкарбан, Сергей Фёдоров, Стэнли Красовицки, Наталья Голованова, Евгений Катаев, Диана Дезмари, Елена Купрашевич, Антон Успенский
Описание фильма:
Феликс Малинин живет в небольшом городке. Среди друзей и знакомых, он слывет неплохим парнем, замкнутым чудаком, постоянно пропадающим в командировках. У Феликса есть небольшое пристрастие – он очень любит готовить, а также У НЕГО ЕСТЬ секрет, о котором знают лишь несколько человек. На самом деле он – сотрудник оперативно-розыскного бюро МВД. Его оперативный псевдоним - «Кулинар». Его работа – оперативное внедрение и сбор информации обо всём, что может представлять интерес для правоохранительных органов. Способный мгновенно перевоплощаться и любыми способами получить нужную информацию, к каждому делу Феликс подходит с особым вкусом – будто готовит очередное блюдо, а каждой операции дает кулинарное название..
Продолжительность: 20 х ~ 00:47:41 серия
Качество видео: WEB-DLRip
Видеокодек: Xvid
Битрейт видео: ~1410 Kbit/s
Размер кадра: 720 х 400
Аудиокодек: AC3, 2.0
Битрейт аудио: 192 Kbit/s

MediaInfo

Общее
Полное имя                       : D:\Торренты\ФИЛЬМЫ торента\Кулинар 2.2013.WEB-DLRip\Кулинар 2.01.avi
Формат                           : AVI
Формат/Информация                : Audio Video Interleave
Размер файла                     : 550 Мбайт
Продолжительность                : 47 м.
Общий поток                      : 1611 Кбит/сек
Программа кодирования            : VirtualDubMod 1.5.10.2 (build 2540/release)
Библиотека кодирования           : VirtualDubMod build 2540/release
Видео
Идентификатор                    : 0
Формат                           : MPEG-4 Visual
Профиль формата                  : Advanced Simple@L5
Параметр BVOP формата            : 2
Параметр QPel формата            : Нет
Параметр GMC формата             : Без точки перехода
Параметр матрицы формата         : Default (MPEG)
Идентификатор кодека             : XVID
Идентификатор кодека/Подсказка   : XviD
Продолжительность                : 47 м.
Битрейт                          : 1410 Кбит/сек
Ширина                           : 720 пикс.
Высота                           : 400 пикс.
Соотношение сторон               : 16:9
Частота кадров                   : 25,000 кадр/сек
Цветовое пространство            : YUV
Подвыборка цветности             : 4:2:0
Битовая глубина                  : 8 бит
Тип развёртки                    : Прогрессивная
Метод сжатия                     : С потерями
Бит/(Пиксели*Кадры)              : 0.196
Размер потока                    : 481 Мбайт (87%)
Библиотека кодирования           : XviD 64
Аудио
Идентификатор                    : 1
Формат                           : AC-3
Формат/Информация                : Audio Coding 3
Расширение режима                : CM (complete main)
Идентификатор кодека             : 2000
Продолжительность                : 47 м.
Вид битрейта                     : Постоянный
Битрейт                          : 192 Кбит/сек
Каналы                           : 2 канала
Расположение каналов             : Front: L R
Частота                          : 48,0 КГц
Битовая глубина                  : 16 бит
Метод сжатия                     : С потерями
Размер потока                    : 65,5 Мбайт (12%)
Выравнивание                     : Разделение по промежуткам
Продолжительность промежутка     : 40  мс. (1,00 видеокадр)
Время предзагрузки промежутка    : 500 ms
Скриншоты:
[Профиль] [ЛС]
Показать сообщения:    
Ответить на тему

Текущее время: 05-Мар 15:54

Часовой пояс: UTC + 3



Вы не можете начинать темы
Вы не можете отвечать на сообщения
Вы не можете редактировать свои сообщения
Вы не можете удалять свои сообщения
Вы не можете голосовать в опросах
Вы не можете прикреплять файлы к сообщениям
Вы не можете скачивать файлы