Мастера секса / Masters of Sex (Дон Рус, Дэн Букатинский, Драма, 2013) HDTVRip, WEB-DLRip [сезон 1, эпизоды 1-12 (12)] (BaibaKo)

Ответить на тему
 
Автор Сообщение

messer20080 ®

Пол: Мужской

Стаж: 7 года 11 месяца

Сообщений: 1927

Создавать темы 21-Дек-2013 20:12

[Цитировать]

-Мастера секса / Masters of Sex (2013) HDTVRip, WEB-DLRip [сезон 1, эпизоды 1-12 (12)] (BaibaKo)- Год выпуска: 2013
Жанр: Драма
Производство: США, Sony Pictures Television
Перевод: Профессиональный (многоголосый закадровый) (BaibaKo)
ВНИМАНИЕ! В сериале присутствуют откровенные сцены и нецензурная лексика! Ограничение по возрасту 18+
Режиссер: Дон Рус, Дэн Букатинский
Актеры: Майкл Шин, Лиззи Каплан, Николас Д’Агосто, Кэйтлин Фицджералд, Тедди Сирс, Хелен Йорк, Кайла Мэдисон, Билл Лэйн, Коул Сэнд, Кристофер Клауси
Описание фильма:
Сериал Мастера секса является экранизацией книги Томаса Майера с претенциозным названием «Мастера секса: Жизнь и время Уильяма Мастерса и Вирджинии Джонсон, пары, которая учила Америку любить». Это история жизни людей, которые проводят постоянные исследования человеческой сексуальности и попробуют их на себе. Это сериал об отношениях между Уильямом (Майкл Шин) и Вирджинией (Лиззи Каплан), которые были первопроходцами в этой теме. Исследователи – сексологи решают выяснить, что в мире может доставить невероятное удовольствие, и что при этом происходит в головном мозге, при достижении этого самого удовольствия. Действие сериала происходит в Америке в 60-е годы прошлого столетия.

Сэмпл:
Продолжительность: 12 x ~01:00:00
Качество: HDTVRip
Видео: MPEG4, XviD, 720x400 (16:9), 23.976 fps, 1 527 Kbps (0.221 bit/pixel)
Аудио #1: MP3, 48.0 KHz, 2 ch, 192 Kbps, CBR (Rus)
Аудио #2: MP3, 48.0 KHz, 2 ch, 192 Kbps, CBR (Eng)
Релиз:
Переводчик: Янина Галицкая
Озвучка: Ольга Мотрич, Юлия Котурбаш, Сергей Корчак и Артемий Мирон

Наименование серий:

1. Пилот / Pilot
2. Улёт / Race to Space
3. Отклонение от нормы / Standard Deviation
4. Спасибо, что пришли / Thank You For Coming
5. Кэтрин / Catherine
6. О дивный новый мир / Brave New World
7. Теперь все вместе / All Together Now
8. Любовь и супружество / Love And Marriage
9. Непроизвольное / Involuntary
10. Радиоактивные осадки / Fallout
11. Фаллические победы / Phallic Victories
12. Элвис покинул здание / Elvis Has Left the Building

Отчет MediaInfo:

Полное имя                       : F:\Сериал\раздача\Masters.of.Sex.s01\Masters.of.Sex.s01e01.baibako.avi
Формат                           : AVI
Формат/Информация                : Audio Video Interleave
Размер файла                     : 846 Мбайт
Продолжительность                : 1 ч. 1 м.
Общий поток                      : 1925 Кбит/сек
Программа кодирования            : VirtualDubMod 1.5.10.2 (build 2542/release)
Библиотека кодирования           : VirtualDubMod build 2542/release
Видео
Идентификатор                    : 0
Формат                           : MPEG-4 Visual
Профиль формата                  : Advanced Simple@L5
Параметр BVOP формата            : 2
Параметр QPel формата            : Нет
Параметр GMC формата             : Без точки перехода
Параметр матрицы формата         : Default (H.263)
Идентификатор кодека             : XVID
Идентификатор кодека/Подсказка   : XviD
Продолжительность                : 1 ч. 1 м.
Битрейт                          : 1527 Кбит/сек
Ширина                           : 720 пикс.
Высота                           : 400 пикс.
Соотношение сторон               : 16:9
Частота кадров                   : 23,976 кадр/сек
Цветовое пространство            : YUV
Подвыборка цветности             : 4:2:0
Битовая глубина                  : 8 бит
Тип развёртки                    : Прогрессивная
Метод сжатия                     : С потерями
Бит/(Пиксели*Кадры)              : 0.221
Размер потока                    : 671 Мбайт (79%)
Библиотека кодирования           : XviD 1.2.1 (UTC 2008-12-04)
Аудио #1
Идентификатор                    : 1
Формат                           : MPEG Audio
Версия формата                   : Version 1
Профиль формата                  : Layer 3
Режим                            : Joint stereo
Расширение режима                : MS Stereo
Идентификатор кодека             : 55
Идентификатор кодека/Подсказка   : MP3
Продолжительность                : 1 ч. 1 м.
Вид битрейта                     : Постоянный
Битрейт                          : 192 Кбит/сек
Каналы                           : 2 канала
Частота                          : 48,0 КГц
Метод сжатия                     : С потерями
Размер потока                    : 84,3 Мбайт (10%)
Выравнивание                     : Соединение по промежуткам
Продолжительность промежутка     : 42  мс. (1,00 видеокадр)
Время предзагрузки промежутка    : 504 ms
Библиотека кодирования           : LAME3.99r
Настройки программы              : -m j -V 4 -q 2 -lowpass 18.6 -b 192
Аудио #2
Идентификатор                    : 2
Формат                           : MPEG Audio
Версия формата                   : Version 1
Профиль формата                  : Layer 3
Режим                            : Joint stereo
Расширение режима                : MS Stereo
Идентификатор кодека             : 55
Идентификатор кодека/Подсказка   : MP3
Продолжительность                : 1 ч. 1 м.
Вид битрейта                     : Постоянный
Битрейт                          : 192 Кбит/сек
Каналы                           : 2 канала
Частота                          : 48,0 КГц
Метод сжатия                     : С потерями
Размер потока                    : 84,3 Мбайт (10%)
Выравнивание                     : Соединение по промежуткам
Продолжительность промежутка     : 42  мс. (1,00 видеокадр)
Время предзагрузки промежутка    : 504 ms
Библиотека кодирования           : LAME3.99r
Настройки программы              : -m j -V 4 -q 2 -lowpass 18.6 -b 192

Внимание! Раздача ведётся путём добавления новых серий

Внимание! Раздача ведётся путём добавления новых серий; при каждом добавлении создаётся новый торрент. Чтобы начать докачку новой серии, пользователям необходимо сделать следующее:
(1) остановить скачивание,
(2) удалить старый торрент у себя из клиента (старые серии удалять не надо),
(3) скачать новый торрент и запустить его у себя в клиенте вместо старого, при этом указать клиенту путь в старую папку куда и должно происходить скачивание новых серий.
Ваш клиент при этом должен произвести хеширование (проверку) старой папки (если не производит сам - помогите ему сделать это), и будет докачивать только те серии которых у вас ещё нет. Старые серии при этом не удаляются, а продолжают раздаваться!
Eсли вы уже удалили старые серии, то предотвратить повторную закачку старых серий можно, отжав галочку в соответствующих местах при запуске нового торрента. По возможности, желательно не удалять старые серии как можно дольше чтобы релизёр не столько продолжал раздавать старые серии, а смог сконцентрироваться на новых.
Скриншоты:

Сериал "Мастера секса / Masters of Sex " на трекере NNM-ClubВремя раздачи: с 9.00 до 23.00, до первых пяти скачавших


Последний раз редактировалось: messer20080 (2013-12-22 13:32), всего редактировалось 2 раз(а)
[Профиль] [ЛС]

messer20080 ®

Пол: Мужской

Стаж: 7 года 11 месяца

Сообщений: 1927

Создавать темы 21-Дек-2013 20:14 (спустя 1 минута)

[Цитировать]

Добавлена последняя 12 серия
[Профиль] [ЛС]
Показать сообщения:    
Ответить на тему

Текущее время: 02-Мар 20:36

Часовой пояс: UTC + 3



Вы не можете начинать темы
Вы не можете отвечать на сообщения
Вы не можете редактировать свои сообщения
Вы не можете удалять свои сообщения
Вы не можете голосовать в опросах
Вы не можете прикреплять файлы к сообщениям
Вы не можете скачивать файлы