Как приручить дракона / How to Train Your Dragon (Том Оуенс) (2010, Mультфильм, приключения, семейный, BDRip) 720p DUB

Ответить на тему
 
Автор Сообщение

donald ®

Пол: Мужской

Стаж: 7 года 9 месяца

Сообщений: 173

Создавать темы 22-Дек-2013 00:18

[Цитировать]

Информация о фильме
Название: Как приручить дракона
Оригинальное название: How to Train Your Dragon
Год выхода: 2010
Жанр: Фэнтези, комедия, приключения, семейный, мультфильм
Режиссер: Дин ДеБлуа, Крис Сандерс
Выпущено: США
Продолжительность: 01:37:51
Перевод: Дублированный
В ролях: Джей Барушель, Джерард Батлер, Крэйг Фергюсон, Америка Феррера, Джона Хилл, Кристофер Минц-Плассе, ТиДжей Миллер, Кристен Уиг, Робин Аткин Даунс, Филип МакГрэйд
Сюжет фильма
Вы узнаете историю подростка Иккинга, которому не слишком близки традиции его героического племени, много лет ведущего войну с драконами. Мир Иккинга переворачивается с ног на голову, когда он неожиданно встречает дракона Беззубика, который поможет ему и другим викингам увидеть привычный мир с совершенно другой стороны...
Файл
Качество: BDRip 720p (DVD5) (исходник BDRemux)
Видео: 1280x544, 5750 Кбит/сек, 23,976 кадр/сек, AVC, x264, High@L4.1, 2.35:1, 0.344 Бит/[Пиксели*Кадры], 2pass
Аудио: AC-3, 640 Кбит/сек, 6 канала(ов), 48,0 КГц
Субтитры: Русские | Полные
Чаптеры: Есть

Скриншоты

MediaInfo

Format : Matroska
Format version : Version 4 / Version 2
File size : 4.37 GiB
Duration : 1h 37mn
Overall bit rate : 6 391 Kbps
Movie name : Как приручить дракона.(2010).BDRip.720p.(DVD5).[NoLimits-Team]
Encoded date : UTC 2013-03-16 07:02:51
Writing application : mkvmerge v6.0.0 ('Coming Up For Air') built on Jan 20 2013 09:52:00
Writing library : libebml v1.3.0 + libmatroska v1.4.0
Video
ID : 1
Format : AVC
Format/Info : Advanced Video Codec
Format profile : High@L4.1
Format settings, CABAC : Yes
Format settings, ReFrames : 12 frames
Codec ID : V_MPEG4/ISO/AVC
Duration : 1h 37mn
Bit rate : 5 750 Kbps
Width : 1 280 pixels
Height : 544 pixels
Display aspect ratio : 2.35:1
Frame rate mode : Constant
Frame rate : 23.976 fps
Color space : YUV
Chroma subsampling : 4:2:0
Bit depth : 8 bits
Scan type : Progressive
Bits/(Pixel*Frame) : 0.344
Stream size : 3.84 GiB (88%)
Title : Как приручить дракона.(2010).BDRip.720p.(DVD5).[NoLimits-Team]
Writing library : x264 core 129 r2245 bc13772
Encoding settings : cabac=1 / ref=12 / deblock=1:0:0 / analyse=0x3:0x133 / me=umh / subme=11 / psy=1 / psy_rd=1.00:0.00 / mixed_ref=1 / me_range=64 / chroma_me=1 / trellis=2 / 8x8dct=1 / cqm=0 / deadzone=21,11 / fast_pskip=0 / chroma_qp_offset=-2 / threads=9 / lookahead_threads=1 / sliced_threads=0 / nr=0 / decimate=1 / interlaced=0 / bluray_compat=0 / constrained_intra=0 / bframes=14 / b_pyramid=2 / b_adapt=2 / b_bias=0 / direct=3 / weightb=1 / open_gop=0 / weightp=2 / keyint=240 / keyint_min=23 / scenecut=40 / intra_refresh=0 / rc_lookahead=60 / rc=2pass / mbtree=1 / bitrate=5750 / ratetol=1.0 / qcomp=0.60 / qpmin=0 / qpmax=69 / qpstep=4 / cplxblur=20.0 / qblur=0.5 / ip_ratio=1.40 / aq=1:1.00
Language : English
Default : Yes
Forced : No
Audio
ID : 2
Format : AC-3
Format/Info : Audio Coding 3
Mode extension : CM (complete main)
Format settings, Endianness : Big
Codec ID : A_AC3
Duration : 1h 37mn
Bit rate mode : Constant
Bit rate : 640 Kbps
Channel(s) : 6 channels
Channel positions : Front: L C R, Side: L R, LFE
Sampling rate : 48.0 KHz
Bit depth : 16 bits
Compression mode : Lossy
Stream size : 448 MiB (10%)
Title : Дублированный
Language : Russian
Default : Yes
Forced : No
Text
ID : 3
Format : UTF-8
Codec ID : S_TEXT/UTF8
Codec ID/Info : UTF-8 Plain Text
Title : Русские (полные)
Language : Russian
Default : No
Forced : No
Menu
00:00:00.000 : :Chapter 01
00:08:39.809 : :Chapter 02
00:11:31.982 : :Chapter 03
00:15:11.035 : :Chapter 04
00:21:57.107 : :Chapter 05
00:27:41.701 : :Chapter 06
00:33:14.200 : :Chapter 07
00:39:07.136 : :Chapter 08
00:43:28.731 : :Chapter 09
00:47:08.367 : :Chapter 10
00:49:47.192 : :Chapter 11
00:59:55.800 : :Chapter 12
01:04:47.383 : :Chapter 13
01:09:28.162 : :Chapter 14
01:12:38.187 : :Chapter 15
01:23:26.042 : :Chapter 16
01:28:54.495 : :Chapter 17
[Профиль] [ЛС]
Показать сообщения:    
Ответить на тему

Текущее время: 28-Фев 07:33

Часовой пояс: UTC + 3



Вы не можете начинать темы
Вы не можете отвечать на сообщения
Вы не можете редактировать свои сообщения
Вы не можете удалять свои сообщения
Вы не можете голосовать в опросах
Вы не можете прикреплять файлы к сообщениям
Вы не можете скачивать файлы