Белое солнце пустыни [ Владимир Мотыль Драма, Военный, Комедия ](1969) DVDRip

Ответить на тему
 
Автор Сообщение

messer20080 ®

Пол: Мужской

Стаж: 7 года 11 месяца

Сообщений: 1927

Создавать темы 22-Дек-2013 13:49

[Цитировать]

-Белое солнце пустыни (1969) DVDRip- Год выпуска: 1969
Выпущено: СССР
Студия: Мосфильм, Ленфильм
Жанр: Драма, Военный, Комедия
Описание фильма:
Средняя Азия после окончания гражданской войны. В Пенджентской пустыне свирепствует шайка Абдуллы. Красноармеец Сухов, отслужив положенный срок, спешит поскорее добраться домой. Но долг красноармейца велит ему выполнить еще одно возложенное на него задание. Сухову приказано сопровождать через пески туркестанской пустыни гарем Абдуллы, который начинает охоту за своими женами. Товарищу Сухову, красноармейцу Петрухе, таможеннику Верещагину и спасенному от верной гибели Саиду пришлось вступить в бой со всей многочисленной бандой Абдуллы...
Режиссер: Владимир Мотыль
Актеры: Анатолий Кузнецов, Павел Луспекаев, Спартак Мишулин, Кахи Кавсадзе, Николай Годовиков, Раиса Куркина, Муса Дудаев, Николай Бадьев, Владимир Кадочников, Галина Лучай, Татьяна Федотова, Татьяна Ткач, Велта Деглав, Светлана Сливинская, Алла Лименес, Лидия Смирнова, Зинаида Рахматова, Татьяна Кричевская, Татьяна Денисова, Яков Ленц, Ираклий Нижарадзе, Игорь Милонов, Андрей Смирнов, Александр Соколов, Александр Массарский, Галина Дашевская, Галина Умпелева, Виталий Матвеев, Яков Базелян
Продолжительность: 01:20:06
Релиз группа:


Качество: DVDRip
Видео: XviD, 1985 Кбит/с, 704x528
Аудио: AC3, 6 ch, 448 Кбит/с

MediaInfo

General
Complete name : E:\Beloe.solnce.pustyni.1969.XviD.DVDRip.avi
Format : AVI
Format/Info : Audio Video Interleave
File size : 1.37 GiB
Duration : 1h 20mn
Overall bit rate : 2 442 Kbps
Writing application : VirtualDubMod 1.5.10.2 (build 2540/release)
Writing library : VirtualDubMod build 2540/release
Video
ID : 0
Format : MPEG-4 Visual
Format profile : Advanced Simple@L5
Format settings, BVOP : 1
Format settings, QPel : No
Format settings, GMC : No warppoints
Format settings, Matrix : Default (MPEG)
Codec ID : XVID
Codec ID/Hint : XviD
Duration : 1h 20mn
Bit rate : 1 985 Kbps
Width : 704 pixels
Height : 528 pixels
Display aspect ratio : 4:3
Frame rate : 25.000 fps
Color space : YUV
Chroma subsampling : 4:2:0
Bit depth : 8 bits
Scan type : Progressive
Compression mode : Lossy
Bits/(Pixel*Frame) : 0.214
Stream size : 1.11 GiB (81%)
Writing library : XviD 1.2.0.dev47 (UTC 2006-11-01)
Audio
ID : 1
Format : AC-3
Format/Info : Audio Coding 3
Mode extension : CM (complete main)
Format settings, Endianness : Big
Codec ID : 2000
Duration : 1h 20mn
Bit rate mode : Constant
Bit rate : 448 Kbps
Channel count : 6 channels
Channel positions : Front: L C R, Side: L R, LFE
Sampling rate : 48.0 KHz
Bit depth : 16 bits
Compression mode : Lossy
Stream size : 257 MiB (18%)
Alignment : Split accross interleaves
Interleave, duration : 40 ms (1.00 video frame)
Interleave, preload duration : 500 ms

Рецензия, отзыв о фильме

Этот своеобразный миддл-истерн, то есть среднеазиатский боевик о борьбе с басмачами (хотя, возможно, благодаря его успеху как раз и возникло определение «советский вестерн») стал не только культовым, но и одним из самых любимых фильмов для нескольких поколений зрителей. Так что к 25-летию его выпуска на экран были предприняты попытки назвать лучшим по опросу публики, а потом вручить запоздало Государственную премию России. Что, в общем-то, по-детски наивно и в каком-то смысле всё же оскорбительно по отношению к «Белому солнцу пустыни», якобы зажимаемому властями в апреле 1970 года, когда всё прогрессивное человечество просто обязано было праздновать более славную дату — столетие В. И. Ленина.
Конечно, лента подверглась подчас анекдотической цензуре, но в итоге была спасена после сановного просмотра на даче Л. И. Брежнева (в этом есть перекличка с картиной «Тринадцать», в середине 30-х годов тоже одобренной вождём, самим И. В. Сталиным). И в прокат «Белое солнце пустыни» выпустили приличным тиражом — по сути, первым экраном. Может, не покажется возмутительным для его ярых поклонников также и то обстоятельство, что по итогам 1970 года фильм уступил по посещаемости 2,4 млн. более эксцентрическому историко-революционному опусу «Опасные гастроли», между прочим, имея меньший показатель на одну копию (что лишний раз свидетельствует: тираж отнюдь не был занижен).
Но всё это отнюдь не ставит под сомнение ни любовь широкой аудитории к работе Владимира Мотыля, ни её безусловные художественные достоинства. Данная лента поистине разошлась на пословицы и поговорки (пожалуй, одна из самых часто цитируемых: «Восток — дело тонкое»), и наряду с комедиями Леонида Гайдая и сериалом «Семнадцать мгновений весны» она является чемпионом по числу показов на ТВ, а многим зрителям действительно кажется типичным образцом вестерна по-советски.
Хотя мало кто стремился увидеть в «Белом солнце пустыни» подлинный русский лубок, лукавую байку про Федю Сухова-стрельца, удалого молодца — подобный сказочный настрой, заданный в воображаемых письмах главного героя своей далёкой супружнице, был придуман Марком Захаровым, упомянутым в титрах в качестве участника создания сценария. Можно также предположить, что и оператор Эдуард Розовский, который начал долголетнее сотрудничество с режиссёром-сказочником Надеждой Кошеверовой ещё на «Каине XVIII», а вдобавок снял трагикомический (тоже на революционном материале) «Начальник Чукотки», внёс свою лепту в придание «Белому солнцу пустыни» именно фольклорного духа. Ну и, конечно, сам Мотыль вслед за картиной «Женя, Женечка и «катюша» доказал, что по-настоящему склонен к жанру комедийно-героического сказа.

Время раздачи: с 10.00 по 24.00 про Киеву
[Профиль] [ЛС]
Показать сообщения:    
Ответить на тему

Текущее время: 28-Фев 00:14

Часовой пояс: UTC + 3



Вы не можете начинать темы
Вы не можете отвечать на сообщения
Вы не можете редактировать свои сообщения
Вы не можете удалять свои сообщения
Вы не можете голосовать в опросах
Вы не можете прикреплять файлы к сообщениям
Вы не можете скачивать файлы