Анютино счастье (2013) SATRip [2 серии из 2]

Ответить на тему
 
Автор Сообщение

Viktor59 ®

Пол: Мужской

Стаж: 8 года

Сообщений: 886

Откуда: Измаил

Создавать темы 22-Дек-2013 15:01

[Цитировать]

-Анютино счастье (2013) SATRip [2 серии из 2]- Русское название: Анютино счастье
Выпущено: Россия, КК "Русское"
Год выпуска: 2013
Жанр: Мелодрама
Перевод: Оригинал (Русский)
Субтитры: Отсутствуют

Режиссер: Борис Рабей
Актеры: Дарья Егорова, Владимир Гориславец, Максим Сальников, Наталья Качалова, Нина Курпякова, Илья Носков, Эра Зиганшина, Эльмира Метревели, Светлана Камынина, Вадим Андреев, Сергей Неудачин, Роман Полянский, Татьяна Шатилова, Олег Харитонов
Описание фильма:
Аня возвращается в родное село из детдома, куда попала после смерти матери. Она приезжает к старшему брату, которого долгие годы не видела. Но в собственном доме оказывается лишней: у брата своя семья, и Аню никто не ждал. Вскоре выясняется, что богатый фермер Юмашев – Анин отец. Когда-то он бросил ее мать и теперь, раскаявшись, решает наверстать упущенное отцовство. Неожиданно Юмашев умирает, успев завещать дочери ферму. Однако вместо райской жизни девушку ждет преследование бандитов, которые давно положили глаз на чужие земли…
Продолжительность: 2 х ~ 01:33:07, 01:31:09 серия
Качество видео: SATRip
Видеокодек: Xvid
Битрейт видео: ~1494 Kbit/s
Размер кадра: 720 х 416
Аудиокодек: MP3, 2.0
Битрейт аудио: 128 Kbit/s

MediaInfo

Общее
Полное имя : D:\Торренты\Анютино счастье.2013.SATRip\Анютино счастье.01.avi
Формат : AVI
Формат/Информация : Audio Video Interleave
Размер файла : 1,06 Гбайт
Продолжительность : 1 ч. 33 м.
Общий поток : 1632 Кбит/сек
Программа кодирования : VirtualDubMod 1.5.10.2 (build 2540/release)
Библиотека кодирования : VirtualDub build 32507/release
Видео
Идентификатор : 0
Формат : MPEG-4 Visual
Профиль формата : Advanced Simple@L5
Параметр BVOP формата : 2
Параметр QPel формата : Нет
Параметр GMC формата : Без точки перехода
Параметр матрицы формата : Default (MPEG)
Идентификатор кодека : XVID
Идентификатор кодека/Подсказка : XviD
Продолжительность : 1 ч. 33 м.
Битрейт : 1494 Кбит/сек
Ширина : 720 пикс.
Высота : 416 пикс.
Соотношение сторон : 16:9
Частота кадров : 25,000 кадр/сек
Цветовое пространство : YUV
Подвыборка цветности : 4:2:0
Битовая глубина : 8 бит
Тип развёртки : Прогрессивная
Метод сжатия : С потерями
Бит/(Пиксели*Кадры) : 0.200
Размер потока : 995 Мбайт (92%)
Библиотека кодирования : XviD 64
Аудио
Идентификатор : 1
Формат : MPEG Audio
Версия формата : Version 1
Профиль формата : Layer 3
Режим : Joint stereo
Расширение режима : MS Stereo
Идентификатор кодека : 55
Идентификатор кодека/Подсказка : MP3
Продолжительность : 1 ч. 33 м.
Вид битрейта : Постоянный
Битрейт : 128 Кбит/сек
Каналы : 2 канала
Частота : 48,0 КГц
Метод сжатия : С потерями
Размер потока : 85,3 Мбайт (8%)
Выравнивание : Соединение по промежуткам
Продолжительность промежутка : 40 мс. (1,00 видеокадр)
Время предзагрузки промежутка : 504 ms
Скриншоты:

Время раздачи: 24/7 по возможности
[Профиль] [ЛС]
Показать сообщения:    
Ответить на тему

Текущее время: 07-Мар 14:34

Часовой пояс: UTC + 3



Вы не можете начинать темы
Вы не можете отвечать на сообщения
Вы не можете редактировать свои сообщения
Вы не можете удалять свои сообщения
Вы не можете голосовать в опросах
Вы не можете прикреплять файлы к сообщениям
Вы не можете скачивать файлы