Дежа Вю / Deja Vu (Юлиуш Махульский)(Комедия, 1989) HDTVRip [H.264/720p-LQ]

Ответить на тему
 
Автор Сообщение

messer20080 ®

Пол: Мужской

Стаж: 7 года 11 месяца

Сообщений: 1927

Создавать темы 26-Дек-2013 13:09

[Цитировать]

-Дежа Вю / Deja Vu (1989) HDTVRip [H.264/720p-LQ]- Год выпуска: 1989
Жанр: Комедия
Страна: Украина, Польша
Студия: Одесская киностудия, Studio Filmowe "Zebra"
Описание фильма:
Действие фильма происходит в 1925 году. Чикаго, как и все города США, переживает период сухого закона. Мафиози Мик Нитч предаёт свою «семью», предоставляя полиции сведения о запланированной незаконной перевозке спирта. Чтобы избежать мести, убегает в СССР - землю своих предков. Мафия узнает о его местонахождении и выносит предателю смертный приговор. Реализацию приговора поручают Джонни Поллаку - непревзойденному специалисту в своем деле. Поллак с фальшивыми документами профессора энтомологии прибывает в Одессу ...
Режиссер: Юлиуш Махульский
Актеры: Ежи Штур, Галина Петрова, Николай Караченцов, Владимир Головин, Лиза Махульска, Виктор Степанов, Олег Шкловский
Продолжительность: 01:44:01

Видеокодек: MPEG-4 AVC/H.264
Битрейт видео: ~3500 Кбит/с
Размер кадра: 1200 х 720
Частота кадров: 25,000 кадров/сек
Качество видео: HDTVRip
Аудио 1: Русский, Dolby AC3, 6 кан., 384 Кбит/с
Аудио 2: Польский, Dolby AC3, 2 кан., 192 Кбит/с
Cубтитры: русские

MediaInfo

Общее
Уникальный идентификатор : 244974464682813553957301426169786921271 (0xB84C5D9F7393C292AEC3E452259BF137)
Полное имя : Deja.vu.1989.720p.HDTV.x264.AC3.mkv
Формат : Matroska
Версия формата : Version 4 / Version 2
Размер файла : 2,96 Гбайт
Продолжительность : 1 ч. 44 м.
Общий поток : 4078 Кбит/сек
Дата кодирования : UTC 2013-11-22 11:23:46
Программа кодирования : mkvmerge v6.5.0 ('Isn't she lovely') built on Oct 20 2013 12:50:05
Библиотека кодирования : libebml v1.3.0 + libmatroska v1.4.1
Видео
Идентификатор : 1
Формат : AVC
Формат/Информация : Advanced Video Codec
Профиль формата : High@L4.1
Параметр CABAC формата : Да
Параметр ReFrames формата : 4 кадра
Идентификатор кодека : V_MPEG4/ISO/AVC
Продолжительность : 1 ч. 44 м.
Битрейт : 3500 Кбит/сек
Ширина : 1200 пикселей
Высота : 720 пикселей
Соотношение сторон : 1,667
Режим частоты кадров : Постоянный
Частота кадров : 25,000 кадров/сек
Цветовое пространство : YUV
Субдискретизация насыщенности : 4:2:0
Битовая глубина : 8 бит
Тип развёртки : Прогрессивная
Бит/(Пиксели*Кадры) : 0.162
Размер потока : 2,49 Гбайт (84%)
Библиотека кодирования : x264 core 130 r2273 b3065e6
Настройки программы : cabac=1 / ref=3 / deblock=1:-1:-1 / analyse=0x3:0x113 / me=hex / subme=7 / psy=1 / psy_rd=1.00:0.15 / mixed_ref=1 / me_range=16 / chroma_me=1 / trellis=1 / 8x8dct=1 / cqm=0 / deadzone=21,11 / fast_pskip=1 / chroma_qp_offset=-3 / threads=6 / lookahead_threads=1 / sliced_threads=0 / nr=0 / decimate=1 / interlaced=0 / bluray_compat=0 / constrained_intra=0 / bframes=3 / b_pyramid=2 / b_adapt=1 / b_bias=0 / direct=1 / weightb=1 / open_gop=0 / weightp=2 / keyint=250 / keyint_min=25 / scenecut=40 / intra_refresh=0 / rc_lookahead=40 / rc=2pass / mbtree=1 / bitrate=3500 / ratetol=1.0 / qcomp=0.60 / qpmin=0 / qpmax=69 / qpstep=4 / cplxblur=20.0 / qblur=0.5 / ip_ratio=1.40 / aq=1:1.00
Default : Да
Forced : Нет
Аудио #1
Идентификатор : 2
Формат : AC-3
Формат/Информация : Audio Coding 3
Расширение режима : CM (complete main)
Параметр Endianness формата : Big
Идентификатор кодека : A_AC3
Продолжительность : 1 ч. 44 м.
Вид битрейта : Постоянный
Битрейт : 384 Кбит/сек
Каналы : 6 каналов
Расположение каналов : Front: L C R, Side: L R, LFE
Частота : 48,0 КГц
Битовая глубина : 16 бит
Метод сжатия : С потерями
Размер потока : 286 Мбайт (9%)
Язык : Russian
Default : Да
Forced : Нет
Аудио #2
Идентификатор : 3
Формат : AC-3
Формат/Информация : Audio Coding 3
Расширение режима : CM (complete main)
Параметр Endianness формата : Big
Идентификатор кодека : A_AC3
Продолжительность : 1 ч. 44 м.
Вид битрейта : Постоянный
Битрейт : 192 Кбит/сек
Каналы : 2 канала
Расположение каналов : Front: L R
Частота : 48,0 КГц
Битовая глубина : 16 бит
Метод сжатия : С потерями
Размер потока : 143 Мбайт (5%)
Язык : Polish
Default : Нет
Forced : Нет
Текст
Идентификатор : 4
Формат : UTF-8
Идентификатор кодека : S_TEXT/UTF8
Идентификатор кодека/Информация : UTF-8 Plain Text
Язык : Russian
Default : Да
Forced : Нет
Скриншоты: "Дежа Вю" на NNM-CLUB
[Профиль] [ЛС]
Показать сообщения:    
Ответить на тему

Текущее время: 02-Мар 20:32

Часовой пояс: UTC + 3



Вы не можете начинать темы
Вы не можете отвечать на сообщения
Вы не можете редактировать свои сообщения
Вы не можете удалять свои сообщения
Вы не можете голосовать в опросах
Вы не можете прикреплять файлы к сообщениям
Вы не можете скачивать файлы