Дом забытых вещей / House of Last Things (Майкл Бартлетт)(Фэнтези, Триллер, 2013) DVDRip

Ответить на тему
 
Автор Сообщение

messer20080 ®

Пол: Мужской

Стаж: 7 года 11 месяца

Сообщений: 1927

Создавать темы 26-Дек-2013 20:25

[Цитировать]

-Дом забытых вещей / House of Last Things (2013) DVDRip- Год выпуска: 2013
Производство: США, Nimbus Film Productions
Жанр: Фэнтези, Триллер
Перевод: Дублированный | Лицензия |
Субтитры: Отсутствуют
Дата мировой премьеры: 31 января 2013,
Дата российской премьеры: 10 октября 2013, «UMS Film»
Дата выхода DVD релиза: 21 ноября 2013, «CD Land»
Режиссер: Майкл Бартлетт
Продюсер: Майкл Бартлетт, Джон Мэннинг, Рене Берндт
Актеры: Линдси Хоун, Блейк Беррис, АрДжей Митт, Рэнди Шульман, Дайан Далтон, Мика Нельсон, Мишель Мариана, Морин Литтрелл, Брэндон Смит, Тим Уиткомб
Описание фильма:
Алан - успешный музыкальный критик. Вместе с женой Сарой они ведут весьма обеспеченную жизнь, но Сара пребывает в депрессии после недавней трагедии и лишь недавно прошла курс лечения. Чтобы поддержать жену и излечить ее больной дух, Алан предпринимает совместную поездку в Италию. На время отсутствия он оставляет приглядывать за домом некую Келли, к которой присоединяется ее младший брат Тим и ее парень Джесси. Довольно быстро трио втягивается в паутину тревожных, необъяснимых событий.
[kp]http://www.kinopoisk.ru/film/520946/[/kp] [imdb]http://www.imdb.com/title/tt1464539/[/imdb]-СКАЧАТЬ СЭМПЛ-Продолжительность: 01:50:27
Качество видео: DVDRip
Видеокодек: XviD
Битрейт видео: 1627 kb/s
Размер кадра: 720x400
Частота кадров: 25,000 fps
Аудиокодек: AC3, 6 ch
Битрейт аудио: 256 kb/s

MI

Общее
Полное имя                               : D:\НЕ УДАЛЯТЬ!!!\Dom.zabytyh.veshei.2013.DVDRip.NNM-CLUB.avi
Формат                                   : AVI
Формат/Информация                        : Audio Video Interleave
Размер файла                             : 1,46 Гбайт
Продолжительность                        : 1 ч. 50 м.
Общий поток                              : 1892 Кбит/сек
Программа кодирования                    : VirtualDubMod 1.5.10.2 (build 2540/release)
Библиотека кодирования                   : VirtualDubMod build 2540/release
Видео
Идентификатор                            : 0
Формат                                   : MPEG-4 Visual
Профиль формата                          : Advanced Simple@L5
Параметр BVOP формата                    : 2
Параметр QPel формата                    : Нет
Параметр GMC формата                     : Без точки перехода
Параметр матрицы формата                 : Default (MPEG)
Идентификатор кодека                     : XVID
Идентификатор кодека/Подсказка           : XviD
Продолжительность                        : 1 ч. 50 м.
Битрейт                                  : 1627 Кбит/сек
Ширина                                   : 720 пикселей
Высота                                   : 400 пикселей
Соотношение сторон                       : 16:9
Частота кадров                           : 25,000 кадров/сек
Цветовое пространство                    : YUV
Субдискретизация насыщенности            : 4:2:0
Битовая глубина                          : 8 бит
Тип развёртки                            : Прогрессивная
Метод сжатия                             : С потерями
Бит/(Пиксели*Кадры)                      : 0.226
Размер потока                            : 1,26 Гбайт (86%)
Библиотека кодирования                   : XviD 1.2.1 (UTC 2008-12-04)
Аудио
Идентификатор                            : 1
Формат                                   : AC-3
Формат/Информация                        : Audio Coding 3
Расширение режима                        : CM (complete main)
Параметр Endianness формата              : Big
Идентификатор кодека                     : 2000
Продолжительность                        : 1 ч. 50 м.
Вид битрейта                             : Постоянный
Битрейт                                  : 256 Кбит/сек
Каналы                                   : 6 каналов
Расположение каналов                     : Front: L C R, Side: L R, LFE
Частота                                  : 48,0 КГц
Битовая глубина                          : 16 бит
Метод сжатия                             : С потерями
Размер потока                            : 202 Мбайт (14%)
Выравнивание                             : Разделение по промежуткам
Продолжительность промежутка             : 40  мс. (1,00 видеокадр)
Время предзагрузки промежутка            : 500  мс.
Скриншоты: Время раздачи: 24/7,
до 5 скачавших.
[Профиль] [ЛС]
Показать сообщения:    
Ответить на тему

Текущее время: 28-Фев 07:12

Часовой пояс: UTC + 3



Вы не можете начинать темы
Вы не можете отвечать на сообщения
Вы не можете редактировать свои сообщения
Вы не можете удалять свои сообщения
Вы не можете голосовать в опросах
Вы не можете прикреплять файлы к сообщениям
Вы не можете скачивать файлы