Приднестровье русский форпост [2013, Документальный, SATRip]

Ответить на тему
 
Автор Сообщение

3rikovi4 ®

Пол: Не указан

Стаж: 7 года 3 месяца

Сообщений: 225

Откуда: Бывший СССР

Создавать темы 27-Дек-2013 13:40

[Цитировать]

Приднестровье русский форпост
Год выпуска: 2013
Страна: Россия
Жанр: Документальный
Продолжительность: 00:46:22
Перевод: Не требуется
Описание: Приднестровская Молдавская республика – непризнанное государство, которое существует уже более 20 лет. Оно живет по своим законам, имеет армию, милицию и валюту.
Новейшая история Приднестровья началась, по сути, с бунта «красных директоров» – руководителей крупнейших предприятий региона, не захотевших войти в состав Молдавии. При этом вооруженный конфликт с Молдавией в 1992 году не был этническим: на стороне ополчения Приднестровья воевали и русские, и молдаване, и украинцы.
Сейчас Приднестровье – это необъяснимый феномен, который доказал свою жизнеспособность. Заповедник, в котором сохранились черты утраченного Советского Союза. Здесь есть своя промышленность, бизнес, культура, и каким-то необъяснимым образом сформировалось особое «приднестровское общество», очень похожее на советское.
Все последние годы Приднестровская Молдавская республика находилась в состоянии вялотекущего конфликта с Молдавией. Отношения с Украиной были нейтральными. Россия всегда поддерживала Приднестровье. Ничто не предвещало каких-то изменений. Но все может стремительно поменяться буквально за пару месяцев. В конце ноября Молдова парафировала соглашение о будущей ассоциации с Евросоюзом. Таким образом, в будущем Приднестровье, скорее всего, окажется в окружении двух стран, открывших для ЕС свои рынки.
Чем это может обернуться для промышленности и экономики Приднестровья, выиграют или проиграют рядовые жители, какова будет позиция России, которая всегда относилась к Приднестровской Молдавской республике как к союзному государству, и сможет ли в таких условиях выжить «последний заповедник СССР»? Попытка найти ответы на эти вопросы – в документальном фильме корреспондента НТВ Сергея Холошевского.
Сэмпл: http://multi-up.com/934729
качество: SATRip
формат: AVI
Видео: 720x448 (1.61:1), 25 fps, DivX Codec 6.8.5/6.9.1, 1502 kbps avg, 0.19 bit/pixel
Аудио: 48 kHz, MPEG Layer 3, 2 ch, 128.00 kbps avg

MediaInfo

Pridnestrovie.avi
Format : AVI
Format/Info : Audio Video Interleave
File size : 544 MiB
Duration : 46mn 22s
Overall bit rate : 1 640 Kbps
Writing application : TMPGEnc Video Mastering Works 5 Version. 5.0.6.38
Writing library : TMPGEnc Video Mastering Works 5 Version. 5.0.6.38
Video #0
ID : 0
Format : MPEG-4 Visual
Format settings, BVOP : No
Format settings, QPel : No
Format settings, GMC : No warppoints
Format settings, Matrix : Default (H.263)
Codec ID : DX50
Codec ID/Hint : DivX 5
Duration : 46mn 22s
Bit rate : 1 500 Kbps
Width : 720 pixels
Height : 448 pixels
Display aspect ratio : 1.607
Frame rate : 25.000 fps
Color space : YUV
Chroma subsampling : 4:2:0
Bit depth : 8 bits
Scan type : Progressive
Compression mode : Lossy
Bits/(Pixel*Frame) : 0.186
Stream size : 497 MiB (91%)
Writing library : DivX 6.8.5 (UTC 2009-08-20)
Audio #1
ID : 1
Format : MPEG Audio
Format version : Version 1
Format profile : Layer 3
Mode : Joint stereo
Codec ID : 55
Codec ID/Hint : MP3
Duration : 46mn 22s
Bit rate mode : Constant
Bit rate : 128 Kbps
Channel(s) : 2 channels
Sampling rate : 48.0 KHz
Compression mode : Lossy
Stream size : 42.5 MiB (8%)
Alignment : Aligned on interleaves
Interleave, duration : 40 ms (1.01 video frame)
Interleave, preload duration : 384 ms

Скриншоты

[Профиль] [ЛС]

Создавать темы 18-Апр-2014 15:11 (спустя 3 месяца 22 дня)

Топик был перенесен из форума Документальные фильмы / Передачи в форум Публицистика

messer20080
 
Показать сообщения:    
Ответить на тему

Текущее время: 26-Фев 00:52

Часовой пояс: UTC + 3



Вы не можете начинать темы
Вы не можете отвечать на сообщения
Вы не можете редактировать свои сообщения
Вы не можете удалять свои сообщения
Вы не можете голосовать в опросах
Вы не можете прикреплять файлы к сообщениям
Вы не можете скачивать файлы