Гонщик / Driven (2001) BDRip

Ответить на тему
 
Автор Сообщение

Viktor59 ®

Пол: Мужской

Стаж: 8 года

Сообщений: 886

Откуда: Измаил

Создавать темы 27-Дек-2013 18:57

[Цитировать]

-Гонщик / Driven (2001) BDRip
«Что тебя заводит?»
Год выпуска: 2001
Жанр: Боевик, Драма, Спорт
Производство: США, Канада, Австралия-Описание фильма:
Чрезвычайно талантливый, но еще очень молодой гонщик Джимми Блай внезапно начинает терять «хватку». Блай — восходящая звезда, и босс его команды отчетливо понимает, что срочно необходим «матерый» специалист-наставник, который не даст карьере Джимми сойти «на нет».
Этим специалистом становится Тэнто — опытнейший гонщик и экс-чемпион. Некоторое время назад Тэнто вынужден был покинуть мир гонок из-за несчастного случая. Но теперь у Джо есть уникальный шанс не только сделать юного Блая новым королем гонщиков, но и доказать всем, на что еще способен он сам.-Режиссер: Ренни Харлин-Актеры: Сильвестр Сталлоне, Берт Рейнолдс, Кип Парду, Стэйси Эдвардс, Тиль Швайгер, Джина Гершон, Эстелла Уоррен, Кристиан де ла Фуэнте, Брент Бриско, Роберт Шон Леонард
--Продолжительность: 01:56:49
Качество видео: BDRip {источник: BD-Remux / 1080p}
Перевод: Профессиональный (полное дублирование)
Язык субтитров: Английские (SDH)
Вид субтитров: (внешние srt*)
- -Дата мировой премьеры: 8 марта 2001-Видеокодек: Xvid
Битрейт видео: 1772 kbps
Размер кадра: 720x304
Аудиокодек: AC3
Аудио #1: 48 kHz, AC3 Dolby Digital, 3/2 (L,C,R,l,r) + LFE ch, ~448.00 kbps avg / Rus
Аудио #2: 48 kHz, AC3 Dolby Digital, 3/2 (L,C,R,l,r) + LFE ch, ~448.00 kbps avg / Eng
-

MI

Формат : AVI
Формат/Информация : Audio Video Interleave
Профиль формата : OpenDML
Размер файла : 2,18 Гбайт
Продолжительность : 1 ч. 56 м.
Общий поток : 2675 Кбит/сек
Название фильма : Гонщик / Driven (2001) BDRip
Режиссёр : sociolog_melvas
Жанр : драма, спорт, боевик
Программа кодирования : VirtualDubMod 1.5.10.2 (build 2540/release)
Примечание : 20.11.2013
Видео
Идентификатор : 0
Формат : MPEG-4 Visual
Профиль формата : Advanced Simple@L5
Параметр BVOP формата : 1
Параметр QPel формата : Нет
Параметр GMC формата : Без точки перехода
Параметр матрицы формата : Выборочная
Идентификатор кодека : XVID
Идентификатор кодека/Подсказка : XviD
Продолжительность : 1 ч. 56 м.
Битрейт : 1761 Кбит/сек
Ширина : 720 пикселей
Высота : 304 пикселя
Соотношение сторон : 2,35:1
Частота кадров : 23,976 кадра/сек
Цветовое пространство : YUV
Субдискретизация насыщенности : 4:2:0
Битовая глубина : 8 бит
Тип развёртки : Прогрессивная
Метод сжатия : С потерями
Бит/(Пиксели*Кадры) : 0.336
Размер потока : 1,44 Гбайт (66%)
Библиотека кодирования : XviD 65
Аудио #1
Идентификатор : 1
Формат : AC-3
Формат/Информация : Audio Coding 3
Расширение режима : CM (complete main)
Параметр Endianness формата : Big
Идентификатор кодека : 2000
Продолжительность : 1 ч. 56 м.
Вид битрейта : Постоянный
Битрейт : 448 Кбит/сек
Каналы : 6 каналов
Расположение каналов : Front: L C R, Side: L R, LFE
Частота : 48,0 КГц
Битовая глубина : 16 бит
Метод сжатия : С потерями
Размер потока : 374 Мбайт (17%)
Выравнивание : Разделение по промежуткам
Продолжительность промежутка : 42 мс. (1,00 видеокадр)
Время предзагрузки промежутка : 500 мс.
Аудио #2
Идентификатор : 2
Формат : AC-3
Формат/Информация : Audio Coding 3
Расширение режима : CM (complete main)
Параметр Endianness формата : Big
Идентификатор кодека : 2000
Продолжительность : 1 ч. 56 м.
Вид битрейта : Постоянный
Битрейт : 448 Кбит/сек
Каналы : 6 каналов
Расположение каналов : Front: L C R, Side: L R, LFE
Частота : 48,0 КГц
Битовая глубина : 16 бит
Метод сжатия : С потерями
Размер потока : 374 Мбайт (17%)
Выравнивание : Разделение по промежуткам
Продолжительность промежутка : 42 мс. (1,00 видеокадр)
Время предзагрузки промежутка : 500 мс.
-Скриншоты:--
[Профиль] [ЛС]
Показать сообщения:    
Ответить на тему

Текущее время: 04-Мар 12:58

Часовой пояс: UTC + 3



Вы не можете начинать темы
Вы не можете отвечать на сообщения
Вы не можете редактировать свои сообщения
Вы не можете удалять свои сообщения
Вы не можете голосовать в опросах
Вы не можете прикреплять файлы к сообщениям
Вы не можете скачивать файлы