На зов скорби / Les Revenants (Фабрис Гобер, Фридерик Мерму) (Триллер, 2012) WEB-DLRip [Сезон 1, Серии 1-8 из 8] (Agatha Studdio)

Ответить на тему
 
Автор Сообщение

messer20080 ®

Пол: Мужской

Стаж: 7 года 11 месяца

Сообщений: 1927

Создавать темы 29-Дек-2013 15:39

[Цитировать]

-На зов скорби / Les Revenants (2012) WEB-DLRip [Сезон 1, Серии 1-8 из 8] (Agatha Studdio)- Русское название: На зов скорби
Оригинальное название: Les Revenants
Год выпуска: 2012
Жанр: Триллер
Режиссер: Фабрис Гобер, Фридерик Мерму
Актеры: Селин Саллетт, Аликс Пуасон, Фредерик Пьеро, Самир Гесми, Гийом Гуи, Дженна Тиам, Анн Косиньи, Клотильда Эсме, Грегори Гадебуа, Пьер Перрье
Описание фильма:
В небольшой альпийской деревушке, растерянные люди пытаются вернуться домой. Они ещё не знают, что мертвы уже несколько лет. Вернувшиеся полны решимости вернуть себе место в мире живых. Но, похоже, воскресли не только мирные жители. Их возврат совпадает с серией жестоких убийств, похожих на дело рук серийного убийцы из прошлого. И на этом нарушения в естественном ходе вещей не заканчиваются...
Перевод: Многоголосый закадровый, профессиональный
Озвучка / Автор перевода: Agatha Studdio
Над релизом работали:
Перевод: vipere
Редактура: Agatha
Роли озвучивали: Сергей Пономарёв, Александр Дасевич, Анастасия Флигина, Татьяна Манетина.
Работа со звуком: iRUSik

Продолжительность: 00:55:00
Качество: WEB-DLRip
Формат: AVI
Видео кодек: XviD
Аудио кодек: MP3
Видео: 720x400 (16:9), 25.000 fps, MPEG4 Visual 1 571 Kbps, 0.218 bit/pixel
Аудио 1: RUS - 192 Кб/сек 48 kHz, MPEG Layer 3, 2 ch
Аудио 2: FR - 192 Кб/сек 48 kHz, MPEG Layer 3, 2 ch
Субтитры: отсутствуют
Доп. информация: Ограничение по возрасту 12 лет (по версии Canal+)
Сэмпл: Скачать
Скриншоты:

MediaInfo

1-я серия

Полное имя : D:\Жорстке видео\Les.Revenants.s01\Les.Revenants.s01e01.avi
Формат : AVI
Формат/Информация : Audio Video Interleave
Размер файла : 780 Мбайт
Продолжительность : 55 м.
Общий поток : 1977 Кбит/сек
Видео
Идентификатор : 0
Формат : MPEG-4 Visual
Профиль формата : Advanced Simple@L5
Параметр BVOP формата : 2
Параметр QPel формата : Нет
Параметр GMC формата : Без точки перехода
Параметр матрицы формата : Default (H.263)
Идентификатор кодека : XVID
Идентификатор кодека/Подсказка : XviD
Продолжительность : 55 м.
Битрейт : 1571 Кбит/сек
Ширина : 720 пикселей
Высота : 400 пикселей
Соотношение сторон : 16:9
Частота кадров : 25,000 кадров/сек
Цветовое пространство : YUV
Субдискретизация насыщенности : 4:2:0
Битовая глубина : 8 бит
Тип развёртки : Прогрессивная
Метод сжатия : С потерями
Бит/(Пиксели*Кадры) : 0.218
Размер потока : 620 Мбайт (79%)
Библиотека кодирования : XviD 1.2.1 (UTC 2008-12-04)
Аудио #1
Идентификатор : 1
Формат : MPEG Audio
Версия формата : Version 1
Профиль формата : Layer 3
Идентификатор кодека : 55
Идентификатор кодека/Подсказка : MP3
Продолжительность : 55 м.
Source_Duration/String : 55 м.
Вид битрейта : Постоянный
Битрейт : 192 Кбит/сек
Каналы : 2 канала
Частота : 48,0 КГц
Метод сжатия : С потерями
Размер потока : 75,7 Мбайт (10%)
Выравнивание : Соединение по промежуткам
Продолжительность промежутка : 24 мс. (0,60 видеокадр)
Аудио #2
Идентификатор : 2
Формат : MPEG Audio
Версия формата : Version 1
Профиль формата : Layer 3
Идентификатор кодека : 55
Идентификатор кодека/Подсказка : MP3
Продолжительность : 55 м.
Source_Duration/String : 55 м.
Вид битрейта : Постоянный
Битрейт : 192 Кбит/сек
Каналы : 2 канала
Частота : 48,0 КГц
Метод сжатия : С потерями
Размер потока : 75,7 Мбайт (10%)
Выравнивание : Соединение по промежуткам
Продолжительность промежутка : 24 мс. (0,60 видеокадр)

2-я серия

Полное имя : D:\Жорстке видео\Les.Revenants.s01\Les.Revenants.s01e02.avi
Формат : AVI
Формат/Информация : Audio Video Interleave
Размер файла : 724 Мбайт
Продолжительность : 51 м.
Общий поток : 1977 Кбит/сек
Видео
Идентификатор : 0
Формат : MPEG-4 Visual
Профиль формата : Advanced Simple@L5
Параметр BVOP формата : 2
Параметр QPel формата : Нет
Параметр GMC формата : Без точки перехода
Параметр матрицы формата : Default (H.263)
Идентификатор кодека : XVID
Идентификатор кодека/Подсказка : XviD
Продолжительность : 51 м.
Битрейт : 1571 Кбит/сек
Ширина : 720 пикселей
Высота : 400 пикселей
Соотношение сторон : 16:9
Частота кадров : 25,000 кадров/сек
Цветовое пространство : YUV
Субдискретизация насыщенности : 4:2:0
Битовая глубина : 8 бит
Тип развёртки : Прогрессивная
Метод сжатия : С потерями
Бит/(Пиксели*Кадры) : 0.218
Размер потока : 575 Мбайт (79%)
Библиотека кодирования : XviD 1.2.1 (UTC 2008-12-04)
Аудио #1
Идентификатор : 1
Формат : MPEG Audio
Версия формата : Version 1
Профиль формата : Layer 3
Идентификатор кодека : 55
Идентификатор кодека/Подсказка : MP3
Продолжительность : 51 м.
Source_Duration/String : 51 м.
Вид битрейта : Постоянный
Битрейт : 192 Кбит/сек
Каналы : 2 канала
Частота : 48,0 КГц
Метод сжатия : С потерями
Размер потока : 70,3 Мбайт (10%)
Выравнивание : Соединение по промежуткам
Продолжительность промежутка : 24 мс. (0,60 видеокадр)
Аудио #2
Идентификатор : 2
Формат : MPEG Audio
Версия формата : Version 1
Профиль формата : Layer 3
Идентификатор кодека : 55
Идентификатор кодека/Подсказка : MP3
Продолжительность : 51 м.
Source_Duration/String : 51 м.
Вид битрейта : Постоянный
Битрейт : 192 Кбит/сек
Каналы : 2 канала
Частота : 48,0 КГц
Метод сжатия : С потерями
Размер потока : 70,3 Мбайт (10%)
Выравнивание : Соединение по промежуткам
Продолжительность промежутка : 24 мс. (0,60 видеокадр)

3-я серия

Полное имя : D:\Жорстке видео\Les.Revenants.s01\Les.Revenants.s01e03.avi
Формат : AVI
Формат/Информация : Audio Video Interleave
Размер файла : 699 Мбайт
Продолжительность : 49 м.
Общий поток : 1977 Кбит/сек
Видео
Идентификатор : 0
Формат : MPEG-4 Visual
Профиль формата : Advanced Simple@L5
Параметр BVOP формата : 2
Параметр QPel формата : Нет
Параметр GMC формата : Без точки перехода
Параметр матрицы формата : Default (H.263)
Идентификатор кодека : XVID
Идентификатор кодека/Подсказка : XviD
Продолжительность : 49 м.
Битрейт : 1571 Кбит/сек
Ширина : 720 пикселей
Высота : 400 пикселей
Соотношение сторон : 16:9
Частота кадров : 25,000 кадров/сек
Цветовое пространство : YUV
Субдискретизация насыщенности : 4:2:0
Битовая глубина : 8 бит
Тип развёртки : Прогрессивная
Метод сжатия : С потерями
Бит/(Пиксели*Кадры) : 0.218
Размер потока : 555 Мбайт (79%)
Библиотека кодирования : XviD 1.2.1 (UTC 2008-12-04)
Аудио #1
Идентификатор : 1
Формат : MPEG Audio
Версия формата : Version 1
Профиль формата : Layer 3
Идентификатор кодека : 55
Идентификатор кодека/Подсказка : MP3
Продолжительность : 49 м.
Source_Duration/String : 49 м.
Вид битрейта : Постоянный
Битрейт : 192 Кбит/сек
Каналы : 2 канала
Частота : 48,0 КГц
Метод сжатия : С потерями
Размер потока : 67,9 Мбайт (10%)
Выравнивание : Соединение по промежуткам
Продолжительность промежутка : 24 мс. (0,60 видеокадр)
Аудио #2
Идентификатор : 2
Формат : MPEG Audio
Версия формата : Version 1
Профиль формата : Layer 3
Идентификатор кодека : 55
Идентификатор кодека/Подсказка : MP3
Продолжительность : 49 м.
Source_Duration/String : 49 м.
Вид битрейта : Постоянный
Битрейт : 192 Кбит/сек
Каналы : 2 канала
Частота : 48,0 КГц
Метод сжатия : С потерями
Размер потока : 67,9 Мбайт (10%)
Выравнивание : Соединение по промежуткам
Продолжительность промежутка : 24 мс. (0,60 видеокадр)
Время раздачи: С 9.00 до 23.00
[Профиль] [ЛС]
Показать сообщения:    
Ответить на тему

Текущее время: 27-Фев 15:05

Часовой пояс: UTC + 3



Вы не можете начинать темы
Вы не можете отвечать на сообщения
Вы не можете редактировать свои сообщения
Вы не можете удалять свои сообщения
Вы не можете голосовать в опросах
Вы не можете прикреплять файлы к сообщениям
Вы не можете скачивать файлы