Пенелопа (01-08 из 08) (Ольга Перуновская) [ 2013, Мелодрама, SATRip]

Ответить на тему
 
Автор Сообщение

Viktor59 ®

Пол: Мужской

Стаж: 8 года

Сообщений: 886

Откуда: Измаил

Создавать темы 29-Дек-2013 17:20

[Цитировать]

-Пенелопа (2013) SATRip [8 серий из 8]- Русское название: Пенелопа
Выпущено: Россия
Год выпуска: 2013
Жанр: Мелодрама
Перевод: Оригинал (Русский)
Субтитры: Отсутствуют

Дата российской премьеры: 28 декабря 2013
Режиссер: Ольга Перуновская
Актеры: Любовь Баханкова, Илья Алексеев, Алексей Янин, Сергей Мухин, Людмила Нильская, Леван Мсхиладзе, Павел Новиков, Тимофей Смирнов, Валентин Самохин, Лейла Кирилова, Игорь Скрипко, Екатерина Крупенина, Ксения Ильясова, Ян Цапник, Владимир Литвинов, Людмила Гаврилова, Надежда Иванова, Денис Урюпин, Елена Коллегова, Александр Стефанцов, Юлия Пивень, Анастасия Лапина, Александр Усердин, Евгения Лютая, Валентин Варецкий, Светлана Йозефий, Наталья Батрак, Евгений Антонов, Вячеслав Бухаров, Лариса Домаскина, Михаил Волков, Кирилл Петров
Описание фильма:
Алена – добрая и красивая, совсем юная девушка работает сортировщицей в порту. Местные парни заглядываются на нее, но она отвергает все ухаживания и ждет большой любви. Однажды в порт приплывает «прекрасный принц» из девичьих грез Иван – красавец и помощник капитана корабля. С его появлением в жизнь девушки приходит сказка – она без памяти влюбляется и совершенно теряет голову..Когда же приходит время прощаться, Иван оставляет Алене брелок-талисман и обещает непременно за ней вернуться. Но сумеет ли Пенелопа дождаться своего Одиссея или ей суждено провести жизнь в одиночестве, сидя на берегу и глядя на морские волны?
Продолжительность: 8 х ~ 00:44:36 серия
Качество видео: SATRip
Видеокодек: DivX 5
Битрейт видео: ~1600 Kbit/s
Размер кадра: 720 x 400
Аудиокодек: MP3, 2.0
Битрейт аудио: 128 Kbit/s

MediaInfo

Общее
Полное имя : D:\Торренты\ФИЛЬМЫ торента\Пенелопа.2013.SATRip\Пенелопа.01.avi
Формат : AVI
Формат/Информация : Audio Video Interleave
Размер файла : 556 Мбайт
Продолжительность : 44 м.
Общий поток : 1741 Кбит/сек
Программа кодирования : transcode-1.1.5
Видео
Идентификатор : 0
Формат : MPEG-4 Visual
Параметр BVOP формата : Да
Параметр QPel формата : Нет
Параметр GMC формата : Без точки перехода
Параметр матрицы формата : Default (H.263)
Идентификатор кодека : DX50
Идентификатор кодека/Подсказка : DivX 5
Продолжительность : 44 м.
Битрейт : 1600 Кбит/сек
Ширина : 720 пикс.
Высота : 400 пикс.
Соотношение сторон : 16:9
Частота кадров : 25,000 кадр/сек
Цветовое пространство : YUV
Подвыборка цветности : 4:2:0
Битовая глубина : 8 бит
Тип развёртки : Прогрессивная
Метод сжатия : С потерями
Бит/(Пиксели*Кадры) : 0.222
Размер потока : 511 Мбайт (92%)
Библиотека кодирования : Intel(R) MPEG-4 encoder based on Intel(R) IPP 6.1 build 137.20[6.1.137.763]
Аудио
Идентификатор : 1
Формат : MPEG Audio
Версия формата : Version 1
Профиль формата : Layer 3
Режим : Joint stereo
Расширение режима : MS Stereo
Идентификатор кодека : 55
Идентификатор кодека/Подсказка : MP3
Продолжительность : 44 м.
Вид битрейта : Постоянный
Битрейт : 128 Кбит/сек
Каналы : 2 канала
Частота : 48,0 КГц
Метод сжатия : С потерями
Размер потока : 40,8 Мбайт (7%)
Выравнивание : Соединение по промежуткам
Продолжительность промежутка : 24 мс. (0,60 видеокадр)
Время предзагрузки промежутка : 48 ms
Библиотека кодирования : LAME3.98.2
Скриншоты:
[Профиль] [ЛС]
Показать сообщения:    
Ответить на тему

Текущее время: 07-Мар 15:14

Часовой пояс: UTC + 3



Вы не можете начинать темы
Вы не можете отвечать на сообщения
Вы не можете редактировать свои сообщения
Вы не можете удалять свои сообщения
Вы не можете голосовать в опросах
Вы не можете прикреплять файлы к сообщениям
Вы не можете скачивать файлы