Каена: Пророчество / Kaena: La prophetie (Крис Делапорте, Паскаль Пинон)(Фантастика, приключения, 2003) [H.264] DVDRip

Ответить на тему
 
Автор Сообщение

messer20080 ®

Пол: Мужской

Стаж: 7 года 11 месяца

Сообщений: 1927

Создавать темы 29-Дек-2013 18:19

[Цитировать]

-Каена: Пророчество / Kaena: La prophetie (2003) DVDRip- Название: Каена: Пророчество
Оригинальное название: Kaena: La prophetie
Год выпуска: 2003
Производство: Франция, Канада, Studio Canal, Chaman Productions
Жанр: Фантастика, приключения
--Режиссер: Крис Делапорте, Паскаль Пинон
Персонажи: Сесиль Де Франс, Микаэль Лонсдаль, Виктория Абриль, Франсуа Сьенер, Жан-Мишель Фарси, Рэймонд Аквавива, Жан Пиа, Кирстен Данст, Ричард Харрис, Анжелика Хьюстон--Описание: На вершине Аксиса, огромного вертикального мира, где-то за облаками находится деревня Каены. Никто из жителей не покидал ее пределов. Но девушка считает, что рядом есть еще миры и что сама она другая! Бунтарский дух влечет Каену в неизведанное. Наперекор табу Великого Жреца она пускается в отчаянный поход. И попадает в странный мир с невиданными существами!.. Ей суждено проникнуть в тайну, которой много сотен лет!..- -Продолжительность: 01:27:24
Перевод: Многоголосый закадровый--Качество видео: DVDRip
Видеокодек: MPEG-4 AVC/H.264
Битрейт видео: ~2631 Кбит/с
Размер кадра: 1024x552
Аудио 1: Русский; AC3; 448 Kbps; CBR; 6 ch
Аудио 2: Англ-ий; AC3; 448 Kbps; CBR; 6 ch
Рип от: AVCurtain
-

Mediainfo

General
Unique ID : 240815376429326040013872935026219116888 (0xB52B5ABD7575DB31A3FCF8621CDD6958)
Complete name : G:\Kaena.Prorochestvo.2003.[H.264].DVDRip.mkv
Format : Matroska
Format version : Version 2
File size : 2.15 GiB
Duration : 1h 27mn
Overall bit rate : 3 528 Kbps
Encoded date : UTC 2012-08-06 17:32:48
Writing application : mkvmerge v5.0.1 ('Es ist Sommer') built on Nov 6 2011 16:23:40
Writing library : libebml v1.2.2 + libmatroska v1.3.0
Video
ID : 1
Format : AVC
Format/Info : Advanced Video Codec
Format profile : High@L4.1
Format settings, CABAC : Yes
Format settings, ReFrames : 8 frames
Codec ID : V_MPEG4/ISO/AVC
Duration : 1h 27mn
Bit rate : 2 631 Kbps
Width : 1 024 pixels
Height : 552 pixels
Display aspect ratio : 1.85:1
Frame rate : 25.000 fps
Color space : YUV
Chroma subsampling : 4:2:0
Bit depth : 8 bits
Scan type : Progressive
Bits/(Pixel*Frame) : 0.186
Stream size : 1.56 GiB (73%)
Writing library : x264 core 119 r2106 07efeb4
Encoding settings : cabac=1 / ref=8 / deblock=1:0:0 / analyse=0x3:0x133 / me=umh / subme=10 / psy=1 / psy_rd=1.00:0.10 / mixed_ref=1 / me_range=32 / chroma_me=1 / trellis=2 / 8x8dct=1 / cqm=0 / deadzone=21,11 / fast_pskip=1 / chroma_qp_offset=-3 / threads=6 / sliced_threads=0 / nr=0 / decimate=1 / interlaced=0 / bluray_compat=0 / constrained_intra=0 / bframes=7 / b_pyramid=2 / b_adapt=2 / b_bias=0 / direct=3 / weightb=1 / open_gop=0 / weightp=2 / keyint=250 / keyint_min=25 / scenecut=40 / intra_refresh=0 / rc_lookahead=40 / rc=2pass / mbtree=1 / bitrate=2631 / ratetol=1.0 / qcomp=0.60 / qpmin=10 / qpmax=51 / qpstep=4 / cplxblur=20.0 / qblur=0.5 / ip_ratio=1.40 / aq=1:1.00
Default : Yes
Forced : No
Audio #1
ID : 2
Format : AC-3
Format/Info : Audio Coding 3
Mode extension : CM (complete main)
Format settings, Endianness : Big
Codec ID : A_AC3
Duration : 1h 27mn
Bit rate mode : Constant
Bit rate : 448 Kbps
Channel(s) : 6 channels
Channel positions : Front: L C R, Side: L R, LFE
Sampling rate : 48.0 KHz
Bit depth : 16 bits
Compression mode : Lossy
Stream size : 280 MiB (13%)
Default : Yes
Forced : No
Audio #2
ID : 3
Format : AC-3
Format/Info : Audio Coding 3
Mode extension : CM (complete main)
Format settings, Endianness : Big
Codec ID : A_AC3
Duration : 1h 27mn
Bit rate mode : Constant
Bit rate : 448 Kbps
Channel(s) : 6 channels
Channel positions : Front: L C R, Side: L R, LFE
Sampling rate : 48.0 KHz
Bit depth : 16 bits
Compression mode : Lossy
Stream size : 280 MiB (13%)
Default : No
Forced : No
--Скриншоты:
-Время раздачи: С 09:00 до 24:00
[Профиль] [ЛС]
Показать сообщения:    
Ответить на тему

Текущее время: 26-Фев 00:22

Часовой пояс: UTC + 3



Вы не можете начинать темы
Вы не можете отвечать на сообщения
Вы не можете редактировать свои сообщения
Вы не можете удалять свои сообщения
Вы не можете голосовать в опросах
Вы не можете прикреплять файлы к сообщениям
Вы не можете скачивать файлы