Алита: Боевой ангел / Alita: Battle Angel (2019) BDRip-AVC от HELLYWOOD | Локализованная версия | Лицензия

Ответить на тему
 
Автор Сообщение

DOMINION ®

Пол: Мужской

Стаж: 1 год 3 месяца

Сообщений: 51

Создавать темы 03-Авг-2019 19:04

[Цитировать]

Год выпуска: 2019
Производство: США.
Жанр: фантастика
Продолжительность: 02:01:57
Перевод: Профессиональный (полное дублирование) BD CEE
Субтитры: русские (Forced), русские (Blu-ray CEE), русские (Focs)
Навигация по главам: есть-Режиссер: Роберт Родригес / Robert Rodriguez
В ролях:
Роза Салазар (Alita), Кристоф Вальц (Dr. Dyson Ido), Дженнифер Коннелли (Chiren), Махершала Али (Vector), Эд Скрейн (Zapan), Джеки Эрл Хейли (Grewishka), Киан Джонсон (Hugo), Хорхе Лендеборг мл. (Tanji), Лана Кондор (Koyomi), Идара Виктор (Nurse Gerhad), Джефф Фэйи (McTeague), Эйса Гонсалес (Nyssiana)-О фильме: Действие фильма происходит через 300 лет после Великой войны в XXVI веке. Доктор Идо находит останки женщины-киборга. После починки киборг ничего не помнит, но обнаруживает, что в состоянии пользоваться боевыми приемами киборгов. Начинаются поиски утерянных воспоминаний.
-
Качество: BDRip-AVC (Alita.Battle.Angel.2019.BDRemux.TeamHD)
Формат: MKV
Видео: 908x380 (2,40:1), 23.976 fps, x264 ~1326 kbps avg, 0.160 bit/pixel
Аудио: 48 kHz, AC3 Dolby Digital, 3/2 (L,C,R,l,r) + LFE ch, ~384.00 kbps avg (RUS)

Инфо

Format : Matroska
Format version : Version 4
File size : 1.46 GiB
Duration : 2 h 1 min
Overall bit rate : 1 710 kb/s
Movie name : Alita Battle Angel (2019)
Encoded date : UTC 2019-07-17 09:18:11
Writing application : mkvmerge v5.9.0 ('On The Loose') built on Dec 15 2012 16:39:58
Writing library : libebml v1.3.0 + libmatroska v1.4.0
Video
ID : 1
Format : AVC
Format/Info : Advanced Video Codec
Format profile : High@L4.1
Format settings : CABAC / 10 Ref Frames
Format settings, CABAC : Yes
Format settings, ReFrames : 10 frames
Codec ID : V_MPEG4/ISO/AVC
Duration : 2 h 1 min
Bit rate : 1 326 kb/s
Width : 908 pixels
Height : 380 pixels
Display aspect ratio : 2.40:1
Frame rate mode : Constant
Frame rate : 23.976 (24000/1001) FPS
Color space : YUV
Chroma subsampling : 4:2:0
Bit depth : 8 bits
Scan type : Progressive
Bits/(Pixel*Frame) : 0.160
Stream size : 1.10 GiB (76%)
Title : potroks
Writing library : x264 core 148 r2638 7599210
Encoding settings : cabac=1 / ref=10 / deblock=1:-1:-1 / analyse=0x3:0x113 / me=umh / subme=11 / psy=1 / psy_rd=1.00:0.05 / mixed_ref=1 / me_range=48 / chroma_me=1 / trellis=2 / 8x8dct=1 / cqm=0 / deadzone=21,11 / fast_pskip=0 / chroma_qp_offset=-3 / threads=9 / lookahead_threads=2 / sliced_threads=0 / nr=0 / decimate=0 / interlaced=0 / bluray_compat=0 / constrained_intra=0 / bframes=10 / b_pyramid=2 / b_adapt=2 / b_bias=0 / direct=3 / weightb=1 / open_gop=0 / weightp=2 / keyint=240 / keyint_min=23 / scenecut=40 / intra_refresh=0 / rc_lookahead=60 / rc=2pass / mbtree=0 / bitrate=1326 / ratetol=1.0 / qcomp=0.70 / qpmin=0 / qpmax=69 / qpstep=4 / cplxblur=20.0 / qblur=0.5 / vbv_maxrate=14000 / vbv_bufsize=14000 / nal_hrd=none / filler=0 / ip_ratio=1.30 / pb_ratio=1.20 / aq=2:0.80
Language : English
Default : Yes
Forced : No
Audio
ID : 2
Format : AC-3
Format/Info : Audio Coding 3
Commercial name : Dolby Digital
Codec ID : A_AC3
Duration : 2 h 1 min
Bit rate mode : Constant
Bit rate : 384 kb/s
Channel(s) : 6 channels
Channel layout : L R C LFE Ls Rs
Sampling rate : 48.0 kHz
Frame rate : 31.250 FPS (1536 SPF)
Bit depth : 16 bits
Compression mode : Lossy
Stream size : 335 MiB (22%)
Title : Dub | DD 5.1 @ 384 kbps - Blu-ray CEE
Language : Russian
Service kind : Complete Main
Default : Yes
Forced : No
Text #1
ID : 3
Format : UTF-8
Codec ID : S_TEXT/UTF8
Codec ID/Info : UTF-8 Plain Text
Title : Forced
Language : Russian
Default : Yes
Forced : Yes
Text #2
ID : 4
Format : UTF-8
Codec ID : S_TEXT/UTF8
Codec ID/Info : UTF-8 Plain Text
Title : Blu-ray CEE
Language : Russian
Default : No
Forced : No
Text #3
ID : 5
Format : UTF-8
Codec ID : S_TEXT/UTF8
Codec ID/Info : UTF-8 Plain Text
Title : Focs
Language : Russian
Default : No
Forced : No
Menu
00:00:00.000 : :00:00:00.000
00:03:28.625 : :00:03:28.625
00:07:51.680 : :00:07:51.680
00:10:07.982 : :00:10:07.982
00:13:06.703 : :00:13:06.703
00:15:06.739 : :00:15:06.739
00:18:04.542 : :00:18:04.542
00:22:58.711 : :00:22:58.711
00:25:35.325 : :00:25:35.325
00:31:40.899 : :00:31:40.899
00:33:29.216 : :00:33:29.216
00:36:32.816 : :00:36:32.816
00:38:30.892 : :00:38:30.892
00:42:05.481 : :00:42:05.481
00:45:58.214 : :00:45:58.214
00:48:31.450 : :00:48:31.450
00:52:57.007 : :00:52:57.007
00:55:14.353 : :00:55:14.353
01:00:39.761 : :01:00:39.761
01:02:56.564 : :01:02:56.564
01:05:16.788 : :01:05:16.788
01:10:50.496 : :01:10:50.496
01:13:37.288 : :01:13:37.288
01:16:35.216 : :01:16:35.216
01:18:52.227 : :01:18:52.227
01:22:48.297 : :01:22:48.297
01:24:55.340 : :01:24:55.340
01:28:25.217 : :01:28:25.217
01:33:18.551 : :01:33:18.551
01:36:08.763 : :01:36:08.763
01:41:54.692 : :01:41:54.692
01:45:23.442 : :01:45:23.442
01:48:16.490 : :01:48:16.490
01:51:43.655 : :01:51:43.655
01:54:43.668 : :01:54:43.668
01:56:51.504 : :01:56:51.504

Скриншоты


[Профиль] [ЛС]
Показать сообщения:    
Ответить на тему

Текущее время: 13-Июл 23:07

Часовой пояс: UTC + 3



Вы не можете начинать темы
Вы не можете отвечать на сообщения
Вы не можете редактировать свои сообщения
Вы не можете удалять свои сообщения
Вы не можете голосовать в опросах
Вы не можете прикреплять файлы к сообщениям
Вы не можете скачивать файлы