Помощники / The Helpers (Крис Стоукс / Chris Stokes) (2012.., ужасы, DVDRip) Dub

Ответить на тему
 
Автор Сообщение

AsPirinS ®

Пол: Не указан

Стаж: 7 года 2 месяца

Сообщений: 228

Создавать темы 30-Дек-2013 10:21

[Цитировать]

Помощники / The Helpers Страна: США
Жанр: ужасы
Год выпуска: 2012
Продолжительность: 01:17:00
Перевод: Профессиональный (дублированный) Back Board Cinema
Cубтитры: нет
Оригинальная аудиодорожка: английский
Режиссер:
Крис Стоукс / Chris Stokes
В ролях:
Кристен Куинтрелл, Денис Лоутон, Кристофер Джонс, Джо Райт, Рэйчел Стерлинг, Блэк Томас, Дастин Хэрниш, Камерон Дискин, Брэкстон Дэвис, Даллас Ловато
Описание:
Семеро друзей отправляются вместе в Лас-Вегас. Весь путь в Город Азарта они снимают на видео. Пробитое колесо приводит их в хороший придорожный мотель. Здесь их встречает :)ливый персонал и теплый прием. Друзьям обещают помочь во всем. А утром они понимают, что оказались в ловушке, каждое их действие тоже снимают на видео. И все такие же вежливые и внимательные люди собираются помочь в первую очередь умереть. Они шутят, вежливо отвечают на вопросы — и убивают. В чем философия смертельного испытания? Об этом сможет рассказать только тот, кому удастся вырваться из ловушки живым. Удастся ли?
Качество видео: DVDRip
Формат видео: AV
Видео: 640x272 (2.35:1), 25 fps, XviD MPEG-4 ~800 kbps avg, 0.18 bit/pixel
Аудио: 48 kHz, AC3 Dolby Digital, 2/0 (L,R) ch, ~192 kbps [Dub]
Аудио 2: 44.1 kHz, AC3 Dolby Digital, 2/0 (L,R) ch, ~192 kbps [ENG]

MediaInfo

Общее
Полное имя : C:UsersDeadmauvladDesktopРелизы На выкладкуPomoshhniki.2012.D.DVDRip.Deadmauvlad.avi
Формат : AVI
Формат/Информация : Audio Video Interleave
Размер файла : 665 Мбайт
Продолжительность : 1 ч. 17 м.
Общий поток : 1196 Кбит/сек
Название фильма : Pomoshhniki.2012.D.DVDRip.Deadmauvlad
Режиссёр : Deadmauvlad
Жанр : Ужасы
Программа кодирования : VirtualDubMod 1.5.10.3 | www.virtualdub-fr.org || (build 2550/release)
Формат оригинала/Имя : Фильм
Правообладатель : Golnenshara
Видео
Идентификатор : 0
Формат : MPEG-4 Visual
Профиль формата : Advanced Simple@L5
Параметр BVOP формата : 1
Параметр QPel формата : Нет
Параметр GMC формата : Без точки перехода
Параметр матрицы формата : Default (H.263)
Режим смешивания : Сжатый битовый поток
Идентификатор кодека : XVID
Идентификатор кодека/Подсказка : XviD
Продолжительность : 1 ч. 17 м.
Битрейт : 801 Кбит/сек
Ширина : 640 пикселей
Высота : 272 пикселя
Соотношение сторон : 2,35:1
Частота кадров : 25,000 кадров/сек
Цветовое пространство : YUV
Субдискретизация насыщенности : 4:2:0
Битовая глубина : 8 бит
Тип развёртки : Прогрессивная
Метод сжатия : С потерями
Бит/(Пиксели*Кадры) : 0.184
Размер потока : 445 Мбайт (67%)
Библиотека кодирования : XviD 1.2.1 (UTC 2008-12-04)
Аудио #1
Идентификатор : 1
Формат : AC-3
Формат/Информация : Audio Coding 3
Расширение режима : CM (complete main)
Параметр Endianness формата : Big
Идентификатор кодека : 2000
Продолжительность : 1 ч. 17 м.
Вид битрейта : Постоянный
Битрейт : 192 Кбит/сек
Каналы : 2 канала
Расположение каналов : Front: L R
Частота : 48,0 КГц
Битовая глубина : 16 бит
Метод сжатия : С потерями
Размер потока : 107 Мбайт (16%)
Выравнивание : Соединение по промежуткам
Продолжительность промежутка : 160 мс. (4,00 видеокадра)
Время предзагрузки промежутка : 640 мс.
Аудио #2
Идентификатор : 2
Формат : AC-3
Формат/Информация : Audio Coding 3
Расширение режима : CM (complete main)
Параметр Endianness формата : Big
Идентификатор кодека : 2000
Продолжительность : 1 ч. 17 м.
Вид битрейта : Постоянный
Битрейт : 192 Кбит/сек
Каналы : 2 канала
Расположение каналов : Front: L R
Частота : 44,1 КГц
Битовая глубина : 16 бит
Метод сжатия : С потерями
Размер потока : 107 Мбайт (16%)
Выравнивание : Разделение по промежуткам
Продолжительность промежутка : 40 мс. (1,00 видеокадр)
Время предзагрузки промежутка : 500 мс.

Скриншот c названием фильма

Скриншоты

[Профиль] [ЛС]

messer20080

Пол: Мужской

Стаж: 7 года 11 месяца

Сообщений: 1927

Создавать темы 30-Дек-2013 11:06 (спустя 45 минуты)

[Цитировать]

Что-то рейтинг низковат. Как фильм то?
[Профиль] [ЛС]
Показать сообщения:    
Ответить на тему

Текущее время: 01-Мар 13:01

Часовой пояс: UTC + 3



Вы не можете начинать темы
Вы не можете отвечать на сообщения
Вы не можете редактировать свои сообщения
Вы не можете удалять свои сообщения
Вы не можете голосовать в опросах
Вы не можете прикреплять файлы к сообщениям
Вы не можете скачивать файлы