Теория Большого взрыва / The Big Bang Theory / Сезон: 4 / Серии: 1-24 (24) (Джеймс Берроуз, Марк Сендровски) [2010-2011, Комедия, HDRip] MVO (2x2) + Original

Ответить на тему
 
Автор Сообщение

messer20080 ®

Пол: Мужской

Стаж: 8 года

Сообщений: 1927

Создавать темы 30-Дек-2013 20:39

[Цитировать]

-Теория Большого Взрыва / The Big Bang TheoryСезон 4, Серии 1-24-- Год выпуска: 2010-2011
Страна: США | CBS
Жанр: комедия
Продолжительность: ~ 00:20:00 x 24
Перевод: Профессиональный многоголосый закадровый [2x2]
Субтитры: нет--Режиссёры: Марк Сендроуски, Питер Чакос
В ролях: Джонни Галекки, Джим Парсонс, Кейли Куоко, Саймон Хельберг, Кунал Найяр, Мелисса Рауш, Маим Биэлик
Описание: Два блестящих физика, Леонард и Шелдон, «великие умы», которые понимают как «работает вселенная». Но их гениальность ничуть не помогает им общаться с людьми, особенно с женщинами. Всё начинает меняться, когда напротив них поселяется красавица Пенни.
Когда Леонард и Шелдон встречают Пенни, Леонард сразу же начинает интересоваться ею. Он видит в общении с Пенни огромную перспективу…, вплоть до любви, однако Шелдон понимает, что мечтам его друга не суждено сбыться.
Стоит также отметить пару странных друзей этих физиков: Говард Воловиц, который любит употреблять фразы на разных языках, включая русский и Раждеш Кутрапали, теряющий дар речи при виде женщин-Работа со звуком: Tom Soyer-Сэмпл: http://multi-up.com/927047
Качество: HDRip
Формат: AVI
Видео кодек: XviD
Аудио кодек: MP3
Видео: XviD, 624 x 352, ~1 Mbit/s, 23.976 fps, 0.189 bit/pixel
Аудио 1: MP3, 2 ch, 48 kHz, 16 bits, 128 kbps [Русский, MVO - 2x2]
Аудио 2: MP3, 2 ch, 48 kHz, 16 bits, 128 kbps [Английский]-

MI

General
Complete name : the.big.bang.theory.s04.rus.mvo.eng\the.big.bang.theory.s04e01.rus.mvo.eng.avi
Format : AVI
Format/Info : Audio Video Interleave
File size : 194 MiB
Duration : 21mn 29s
Overall bit rate : 1 265 Kbps
Writing application : VirtualDubMod 1.5.10.2 (build 2540/release)
Writing library : VirtualDubMod build 2540/release
Video
ID : 0
Format : MPEG-4 Visual
Format profile : Advanced Simple@L5
Format settings, BVOP : 2
Format settings, QPel : No
Format settings, GMC : No warppoints
Format settings, Matrix : Default (H.263)
Codec ID : XVID
Codec ID/Hint : XviD
Duration : 21mn 29s
Bit rate : 995 Kbps
Width : 624 pixels
Height : 352 pixels
Display aspect ratio : 16:9
Frame rate : 23.976 fps
Color space : YUV
Chroma subsampling : 4:2:0
Bit depth : 8 bits
Scan type : Progressive
Compression mode : Lossy
Bits/(Pixel*Frame) : 0.189
Stream size : 153 MiB (79%)
Writing library : XviD 1.2.1 (UTC 2008-12-04)
Audio #1
ID : 1
Format : MPEG Audio
Format version : Version 1
Format profile : Layer 3
Mode : Joint stereo
Mode extension : MS Stereo
Codec ID : 55
Codec ID/Hint : MP3
Duration : 21mn 29s
Bit rate mode : Constant
Bit rate : 128 Kbps
Channel(s) : 2 channels
Sampling rate : 48.0 KHz
Compression mode : Lossy
Stream size : 19.7 MiB (10%)
Alignment : Aligned on interleaves
Interleave, duration : 42 ms (1.00 video frame)
Interleave, preload duration : 504 ms
Audio #2
ID : 2
Format : MPEG Audio
Format version : Version 1
Format profile : Layer 3
Mode : Joint stereo
Mode extension : MS Stereo
Codec ID : 55
Codec ID/Hint : MP3
Duration : 21mn 29s
Bit rate mode : Constant
Bit rate : 128 Kbps
Channel(s) : 2 channels
Sampling rate : 48.0 KHz
Compression mode : Lossy
Stream size : 19.7 MiB (10%)
Alignment : Aligned on interleaves
Interleave, duration : 42 ms (1.00 video frame)
Interleave, preload duration : 504 ms
Writing library : LAME3.99r
Encoding settings : -m j -V 4 -q 2 -lowpass 17 -b 128
-
[Профиль] [ЛС]
Показать сообщения:    
Ответить на тему

Текущее время: 04-Мар 12:25

Часовой пояс: UTC + 3



Вы не можете начинать темы
Вы не можете отвечать на сообщения
Вы не можете редактировать свои сообщения
Вы не можете удалять свои сообщения
Вы не можете голосовать в опросах
Вы не можете прикреплять файлы к сообщениям
Вы не можете скачивать файлы