Особенности национальной маршрутки (Газзила) (2013) SATRip [4 серии из 4]

Ответить на тему
 
Автор Сообщение

Viktor59 ®

Пол: Мужской

Стаж: 8 года

Сообщений: 886

Откуда: Измаил

Создавать темы 31-Дек-2013 15:17

[Цитировать]

-Особенности национальной маршрутки (Газзила) (2013) SATRip [4 серии из 4]- Год выпуска: 2013
Страна: Россия
Жанр: Комедия, Мелодрама
Режиссер: Петр Степин
Актеры: Иван Стебунов, Ульяна Лаптева, Кристина Пакарина, Максим Самарский, Екатерина Федулова, Евгений Леонов-Гладышев, Василий Мищенко, Екатерина Копанова, Алеся Пуховая, Иван Федотов, Вячеслав Гришечкин
Описание фильма:
Кошмар в явь современного человека - это добраться до места на маршрутке. Тебя ласково прижмут к стеклу макияжем, вытащат носовой платок с заначкой, так еще и вспомнят твою маму, нарисуют точный портрет с эпитетами. Такого праздника врагу не пожелаешь в период проигрыша. Сельский люд с авоськами, а то и козами, городские, обозленные на все, что дышит, школьники рвут чулки дамам молниями и липучками от портфелей, с тыла крики "Остановите!", и начинается тестомешалка с присыпками мата и специями тычков в спину. Сумрак не вечен, бывает и в маршрутке солнечно. Радушные пассажиры, неожиданные встречи, даже любовь. Дорога извилиста, асфальт скребет покрышки, все до курьезов смешно. Водитель вообще отдельный разговор: говорит на непонятном диалекте, это особенности национальности или усталость, настроение, как у беременной, непредсказуемые гормоны прыгают вместе с переполненным салоном маршрутки. Небольшой автобус с начинкой из шуток, злости, радости и слез мчится, игнорируя светофоры и ямы по необъятным просторам улиц.
Продолжительность: ~ 00:44:00 серия
Качество видео: SATRip

Видеокодек: DivX 5
Битрейт видео: ~1850 kb/s
Размер кадра: 704x384
Аудиокодек: MP3 (2ch)
Битрейт аудио: 128 kb/s

Mediainfo

Общее
Полное имя : H:\Marchrytka\Osobennosti.nacionalnoj.marshrutky.(1.serija.iz.4).2013.DivX.SATRip.avi
Формат : AVI
Формат/Информация : Audio Video Interleave
Размер файла : 624 Мбайт
Продолжительность : 43 м.
Общий поток : 1989 Кбит/сек
Библиотека кодирования : Boilsoft AVI tool build 1/release
Видео
Идентификатор : 0
Формат : MPEG-4 Visual
Параметр BVOP формата : 1
Параметр QPel формата : Нет
Параметр GMC формата : Без точки перехода
Параметр матрицы формата : Default (H.263)
Режим смешивания : Сжатый битовый поток
Идентификатор кодека : DX50
Идентификатор кодека/Подсказка : DivX 5
Продолжительность : 43 м.
Битрейт : 1851 Кбит/сек
Ширина : 704 пикселя
Высота : 384 пикселя
Соотношение сторон : 1,85:1
Частота кадров : 25,000 кадров/сек
Цветовое пространство : YUV
Субдискретизация насыщенности : 4:2:0
Битовая глубина : 8 бит
Тип развёртки : Прогрессивная
Метод сжатия : С потерями
Бит/(Пиксели*Кадры) : 0.274
Размер потока : 581 Мбайт (93%)
Библиотека кодирования : DivX 6.8.5 (UTC 2009-08-20)
Аудио
Идентификатор : 1
Формат : MPEG Audio
Версия формата : Version 1
Профиль формата : Layer 3
Режим : Joint stereo
Расширение режима : MS Stereo
Идентификатор кодека : 55
Идентификатор кодека/Подсказка : MP3
Продолжительность : 43 м.
Вид битрейта : Постоянный
Битрейт : 128 Кбит/сек
Каналы : 2 канала
Частота : 48,0 КГц
Метод сжатия : С потерями
Размер потока : 40,2 Мбайт (6%)
Выравнивание : Разделение по промежуткам
Продолжительность промежутка : 40 мс. (1,00 видеокадр)
Время предзагрузки промежутка : 500 мс.

Внимание! Раздача ведётся путём добавления новых серий

Внимание! Раздача ведётся путём добавления новых серий; при каждом добавлении создаётся новый торрент.
Чтобы начать докачку новой серии, пользователям необходимо сделать следующее:
1. Остановить скачивание;
2. Удалить старый торрент у себя из клиента (старые серии удалять не надо);
3. Скачать новый торрент и запустить его у себя в клиенте вместо старого, при этом указать клиенту путь в старую папку куда и должно происходить скачивание новых серий. Ваш клиент при этом должен произвести хеширование (проверку) старой папки и будет докачивать только те серии, которых у вас ещё нет. Старые серии при этом не удаляются, а продолжают раздаваться! Eсли вы уже удалили старые серии, то предотвратить повторную закачку старых серий можно, отжав галочку в соответствующих местах при запуске нового торрента.
Скриншоты:
[Профиль] [ЛС]

Enigmatik

Пол: Мужской

Стаж: 7 года 11 месяца

Сообщений: 1138

Откуда: ✔ Оттуда ✔

Создавать темы 31-Дек-2013 16:00 (спустя 42 минуты)

[Цитировать]

Viktor59, ))) Спасибо. это Типа рыбалки и Охоты?
[Профиль] [ЛС]

Создавать темы 04-Янв-2014 12:54 (спустя 3 дня)

Топик был перенесен из форума Тренировочный раздел в форум Отечественные cериалы

Viktor59
 
Показать сообщения:    
Ответить на тему

Текущее время: 26-Фев 21:30

Часовой пояс: UTC + 3



Вы не можете начинать темы
Вы не можете отвечать на сообщения
Вы не можете редактировать свои сообщения
Вы не можете удалять свои сообщения
Вы не можете голосовать в опросах
Вы не можете прикреплять файлы к сообщениям
Вы не можете скачивать файлы