Парклэнд / Parkland (Питер Ландесман)(Триллер, Драма, Детектив, 2013) HDRip

Ответить на тему
 
Автор Сообщение

messer20080 ®

Пол: Мужской

Стаж: 8 года

Сообщений: 1927

Создавать темы 31-Дек-2013 16:57

[Цитировать]

-Парклэнд / Parkland (2013) HDRip
«22 Ноября 1963 года, президент Джон ф. Кеннеди был убит.
Это история о том, что произошло дальше»
- Год выпуска: 2013
Производство: США | American Film Company, The, Exclusive Media Group, Playtone
Жанр: Триллер, Драма, Детектив
Перевод: Двуголосый закадровый, любительский
Озвучка / Автор перевода: (Студия "Paradox")
Субтитры: Отсутствуют-Дата мировой премьеры: 1 сентября 2013 (Италия, кинофестиваль в Венеции)-Режиссер: Питер Ландесман-Продюсер: Гари Гоэцман, Том Хэнкс, Мэтт Джексон-Актеры: Марсия Гэй Харден, Зак Эфрон, Мэллори Мой, Колин Хэнкс, Пол Джаматти, Битси Таллоч, Рон Ливингстон, Джейсон Дуглас, Дэвид Харбор, Джеймс Бэдж Дэйл, Ларри Джек Дотсон, Джеки Уивер, Остин Николс, Билли Боб Торнтон, Том Уэллинг, Джонатан Брек, Юджин Ли, Нико Эверс-Свинделл-Описание фильма:
• 1963 год. 22 ноября. Даллас. 11:50. Президентский кортеж движется в центр города. 12:30. Раздаются роковые выстрелы. 13:00. Госпиталь Парклэнд. 35-й президент США скончался.
• Что стало поводом к убийству президента? Вопрос, который вот уже полвека держит в напряжении человечество… Последняя версия одного из самых громких и неразгаданных преступлений XX века, убийство Джона Ф. Кеннеди — любимого страной президента, молодого умного политика, гениального любовника, водившего опасные романы — с Мэрлин Монро, и еще сотнями красивейших женщин Америки.-
Продолжительность: 01:33:39
Качество видео: HDRip
Видеокодек: Xvid
Битрейт видео: ~1838 Кбит/сек
Размер кадра: 720 x 400 (1.800) at 23.976 fps
Аудиокодек: AC3 5.1
Битрейт аудио: 384 Кбит/сек, 48,0 КГц

Трейлер / Ролик

Награды

Знаете ли вы, что...

• В основе фильма лежит книга «Восстановленная история: Убийство президента Джона Кеннеди» (Reclaiming History: The Assassination of President John F. Kennedy) бывшего юриста Винсента Буглиози.

MediaInfo:

Полное имя                               : G:\Parkland.2013.L2.HDRip.1.46GB.avi
Формат                                   : AVI
Формат/Информация                        : Audio Video Interleave
Размер файла                             : 1,46 Гбайт
Продолжительность                        : 1 ч. 33 м.
Общий поток                              : 2231 Кбит/сек
Программа кодирования                    : VirtualDubMod 1.5.10.2 (build 2542/release)
Библиотека кодирования                   : VirtualDubMod build 2542/release
Видео
Идентификатор                            : 0
Формат                                   : MPEG-4 Visual
Профиль формата                          : Advanced Simple@L5
Параметр BVOP формата                    : 2
Параметр QPel формата                    : Нет
Параметр GMC формата                     : Без точки перехода
Параметр матрицы формата                 : Default (H.263)
Идентификатор кодека                     : XVID
Идентификатор кодека/Подсказка           : XviD
Продолжительность                        : 1 ч. 33 м.
Битрейт                                  : 1838 Кбит/сек
Ширина                                   : 720 пикселей
Высота                                   : 400 пикселей
Соотношение сторон                       : 16:9
Частота кадров                           : 23,976 кадра/сек
Цветовое пространство                    : YUV
Субдискретизация насыщенности            : 4:2:0
Битовая глубина                          : 8 бит
Тип развёртки                            : Прогрессивная
Метод сжатия                             : С потерями
Бит/(Пиксели*Кадры)                      : 0.266
Размер потока                            : 1,20 Гбайт (82%)
Библиотека кодирования                   : XviD 1.2.1 (UTC 2008-12-04)
Аудио
Идентификатор                            : 1
Формат                                   : AC-3
Формат/Информация                        : Audio Coding 3
Расширение режима                        : CM (complete main)
Параметр Endianness формата              : Big
Идентификатор кодека                     : 2000
Продолжительность                        : 1 ч. 33 м.
Вид битрейта                             : Постоянный
Битрейт                                  : 384 Кбит/сек
Каналы                                   : 6 каналов
Расположение каналов                     : Front: L C R, Side: L R, LFE
Частота                                  : 48,0 КГц
Битовая глубина                          : 16 бит
Метод сжатия                             : С потерями
Размер потока                            : 257 Мбайт (17%)
Выравнивание                             : Разделение по промежуткам
Продолжительность промежутка             : 42  мс. (1,00 видеокадр)
Время предзагрузки промежутка            : 500  мс.
Скриншоты:

--Время раздачи: 24/7
[Профиль] [ЛС]
Показать сообщения:    
Ответить на тему

Текущее время: 08-Мар 15:02

Часовой пояс: UTC + 3



Вы не можете начинать темы
Вы не можете отвечать на сообщения
Вы не можете редактировать свои сообщения
Вы не можете удалять свои сообщения
Вы не можете голосовать в опросах
Вы не можете прикреплять файлы к сообщениям
Вы не можете скачивать файлы