Comedy Woman. Новый формат (2013.12.31) SATRip

Ответить на тему
 
Автор Сообщение

баба Люда ®

Пол: Не указан

Стаж: 7 года 1 месяц

Сообщений: 20

Создавать темы 31-Дек-2013 17:21

[Цитировать]

- Comedy Woman. Новый формат (2013.12.31) SATRip - Режиссер / Телекомпания: ТНТ
Русское название: Comedy Woman
Год выпуска: 2013
Жанр: ТВ-Шоу
Описание:
Пока мужчины меняют зимнюю резину в автосервисах, девушки из ComedyWoman меняют формат шоу. В новом сезоне комеди-дамы покажут все, на что они способны и остановить их не сможет никто... Даже ОН! Ведь в рамках предвыборной кампании хорошего жениха в гости ComedyWoman заглянет Второй Человек в нашей стране! Теперь в Comedy Woman всех ожидает все на 100% женское, ведь не считая Дмитрия Хрусталева на сцене и в зале будут только дамы. Впрочем, будут и исключения. Фишкой нового сезона станут новые костюмы, специально разработанные для девчонок одним модным дизайнером. Теперь в нарядах будет больше секса, а на сцене больше женских ног, которые ранее тщательно скрывались за длинными юбками. Кроме этого зрители увидят и новые декорации в стиле «Алиса в стране чудес»
Популярное шоу Сomedy Woman теперь становится на 100% женским! Здесь все по-новому: еще больше секса, голых ног, эротичных костюмов, жарких шуток, веселых закулисных перебранок и никаких мужчин даже в зале! Разве что Дмитрий Хрусталев останется и парочка очень важных персон заглянет...
Участники:
Дмитрий Хрусталев, Наталья Еприкян, Екатерина Скулкина, Екатерина Варнава, Мария Кравченко, Полина Сибагатуллина, Екатерина Баранова, Татьяна Морозова, Елена Борщёва, Наталия Медведева, Надежда Сысоева, Надежда Ангарская, Марина Федункив
Продолжительность: ~ 00:43:47
Ведущий: Дмитрий Хрусталёв
Видеокодек: XviD
Битрейт видео: ~1800 kb/s
Размер кадра: 720 x 400
Качество видео: SATRip
Аудиокодек: MP3, 2ch.
Битрейт аудио: 128 kb/s

MediaInfo

Формат : AVI
Формат/Информация : Audio Video Interleave
Размер файла : 607 Мбайт
Продолжительность : 43 м.
Общий поток : 1938 Кбит/сек
Библиотека кодирования : VirtualDub build 32706/release
Видео
Идентификатор : 0
Формат : MPEG-4 Visual
Профиль формата : Advanced Simple@L5
Параметр BVOP формата : 2
Параметр QPel формата : Нет
Параметр GMC формата : Без точки перехода
Параметр матрицы формата : Default (MPEG)
Идентификатор кодека : XVID
Идентификатор кодека/Подсказка : XviD
Продолжительность : 43 м.
Битрейт : 1801 Кбит/сек
Ширина : 720 пикселей
Высота : 400 пикселей
Соотношение сторон : 16:9
Частота кадров : 25,000 кадров/сек
Цветовое пространство : YUV
Субдискретизация насыщенности : 4:2:0
Битовая глубина : 8 бит
Тип развёртки : Прогрессивная
Метод сжатия : С потерями
Бит/(Пиксели*Кадры) : 0.250
Размер потока : 564 Мбайт (93%)
Библиотека кодирования : XviD 1.2.1 (UTC 2008-12-04)
Аудио
Идентификатор : 1
Формат : MPEG Audio
Версия формата : Version 1
Профиль формата : Layer 3
Режим : Joint stereo
Расширение режима : MS Stereo
Идентификатор кодека : 55
Идентификатор кодека/Подсказка : MP3
Продолжительность : 43 м.
Вид битрейта : Постоянный
Битрейт : 128 Кбит/сек
Каналы : 2 канала
Частота : 48,0 КГц
Метод сжатия : С потерями
Размер потока : 40,1 Мбайт (7%)
Выравнивание : Разделение по промежуткам
Продолжительность промежутка : 40 мс. (1,00 видеокадр)
Время предзагрузки промежутка : 500 мс.
Скриншоты: Время раздачи: 24/7.
Rip by mr.Vas
[Профиль] [ЛС]

Создавать темы 21-Дек-2014 15:47 (спустя 11 месяца 20 дня)

Топик был перенесен из форума ПостКВН в форум Comedy

messer20080
 
Показать сообщения:    
Ответить на тему

Текущее время: 28-Фев 07:16

Часовой пояс: UTC + 3



Вы не можете начинать темы
Вы не можете отвечать на сообщения
Вы не можете редактировать свои сообщения
Вы не можете удалять свои сообщения
Вы не можете голосовать в опросах
Вы не можете прикреплять файлы к сообщениям
Вы не можете скачивать файлы