Звёзды Дорожного радио 2013 (2013.12.31) SATRip

Ответить на тему
 
Автор Сообщение

Viktor59 ®

Пол: Мужской

Стаж: 8 года

Сообщений: 886

Откуда: Измаил

Создавать темы 31-Дек-2013 20:39

[Цитировать]

- Звёзды Дорожного радио 2013 (2013.12.31) SATRip - Режиссер / Телекомпания: 5
Русское название: Звёзды Дорожного радио 2013
Год выпуска: 2013
Жанр: Тв-шоу
Выпущено: Россия
Описание:
Звезды Дорожного Радио" - это не просто концерт, а настоящий праздник для ценителей популярной отечественной музыки. В канун Нового года телезрителей :)ствуют лучшие исполнители отечественной эстрады: Таисия Повалий, Елена Ваенга, Натали, Денис Майданов, Александр Буйнов, Николай Басков, Сергей Трофимов, Ани Лорак, группа "Руки Вверх!", Методие Бужор, Группа "Ярмарка", Анне Вески, Андрей Бандера, Игорь Саруханов, Аркадий Укупник, Группа "На-На", Юрий Лоза, Татьяна Буланова, Алена Апина, Афина, Денис Клявер, Вика Цыганова. Ведущие концерта - острословы и шутники из команды "Уездный Город". "ЗВЕЗДЫ ДОРОЖНОГО РАДИО" - два часа самой любимой музыки, самых лучших исполнителей и самых позитивных эмоций!
Продолжительность: 02:00:53
Видеокодек: XVID
Качество видео: SATRip
Битрейт видео: ~1800 kb/s
Размер кадра: 720 x 400
Аудиокодек: MP3, 2.0ch.
Битрейт аудио: 128 kb/s

MediaInfo:

Формат : AVI
Формат/Информация : Audio Video Interleave
Размер файла : 1,64 Гбайт
Продолжительность : 2 ч. 0 м.
Общий поток : 1939 Кбит/сек
Программа кодирования : VirtualDubMod 1.5.10.3 | www.virtualdub-fr.org || (build 2550/release)
Библиотека кодирования : VirtualDubMod build 2550/release
Видео
Идентификатор : 0
Формат : MPEG-4 Visual
Профиль формата : Advanced Simple@L5
Параметр BVOP формата : 2
Параметр QPel формата : Нет
Параметр GMC формата : Без точки перехода
Параметр матрицы формата : Default (MPEG)
Идентификатор кодека : XVID
Идентификатор кодека/Подсказка : XviD
Продолжительность : 2 ч. 0 м.
Битрейт : 1801 Кбит/сек
Ширина : 720 пикселей
Высота : 400 пикселей
Соотношение сторон : 16:9
Частота кадров : 25,000 кадров/сек
Цветовое пространство : YUV
Субдискретизация насыщенности : 4:2:0
Битовая глубина : 8 бит
Тип развёртки : Прогрессивная
Метод сжатия : С потерями
Бит/(Пиксели*Кадры) : 0.250
Размер потока : 1,52 Гбайт (93%)
Библиотека кодирования : XviD 63
Аудио
Идентификатор : 1
Формат : MPEG Audio
Версия формата : Version 1
Профиль формата : Layer 3
Режим : Joint stereo
Расширение режима : MS Stereo
Идентификатор кодека : 55
Идентификатор кодека/Подсказка : MP3
Продолжительность : 2 ч. 0 м.
Вид битрейта : Постоянный
Битрейт : 128 Кбит/сек
Каналы : 2 канала
Частота : 48,0 КГц
Метод сжатия : С потерями
Размер потока : 111 Мбайт (7%)
Выравнивание : Соединение по промежуткам
Продолжительность промежутка : 40 мс. (1,00 видеокадр)
Время предзагрузки промежутка : 504 мс.
Библиотека кодирования : LAME3.98r
Настройки программы : -m j -V 4 -q 0 -lowpass 17 -b 128
Скриншоты:
[Профиль] [ЛС]

Создавать темы 28-Янв-2014 23:53 (спустя 28 дня)

Топик был перенесен из форума Поп-музыка в форум Клипы и концерты

Enigmatik
 
Показать сообщения:    
Ответить на тему

Текущее время: 01-Мар 12:28

Часовой пояс: UTC + 3



Вы не можете начинать темы
Вы не можете отвечать на сообщения
Вы не можете редактировать свои сообщения
Вы не можете удалять свои сообщения
Вы не можете голосовать в опросах
Вы не можете прикреплять файлы к сообщениям
Вы не можете скачивать файлы