Космические войска / Space Force (Сезон 1, Серия 1-10 из 10) (Пол Кинг, Том Маршалл) [2020, Комедия,WEB-DLRip - HEVC HDR 10bit 1080p] [ IdeaFilm+LostFilm+Кубик в Кубе+NewStudio+HDrezka+Eng]+[Subs Rus , ENG]

Ответить на тему
 
Автор Сообщение

Враг Нароода ®

Пол: Не указан

Стаж: 4 года 6 месяца

Сообщений: 325

Создавать темы 08-Июн-2020 14:59

[Цитировать]

---- -- Космические войска / Space Force - (Сезон 1, Серия 1-10 из 10) = Полный Комплект = -- --Год выпуска: 2020
Выпущено: США , 3 Arts Entertainment, NetFlix
Жанр: Комедия
Продолжительность: 00:36:00
Сезон:1
Серия:1-10
Количество серий в сезоне:10--Озвучка #1: Профессиональный многоголосый - IdeaFilm - Русский
Озвучка #2: Профессиональный многоголосый - Кубик в Кубе - Русский
Озвучка #3: Профессиональный многоголосый - NewStudio - Русский
Озвучка #4: Профессиональный многоголосый - HDrezka Studio - Русский
Озвучка #5: Профессиональный многоголосый - LostFilm- Русский
Озвучка #6: Профессиональный многоголосый - Цікава Ідея - Украинский
Озвучка #7: Профессиональный многоголосый -Английский - Оригинал
Субтитры: Russian (Forced, Full), English, English (SDH)-UTF-8
--Вшитые (UTF-8)
#1 Russian (srt)
#2 Russian (Forced)
#3 English / Original (SDH)
#4 English / Original
Внешние (SRT UTF-8):
#1 English / Original (SDH)
#2 English / Original
#3 Russian / Forced
#4 Russian (srt)
#5 English / Original (SDH)
#6 English / Original
#7 Russian (Forced)
#8 Russian (srt)
--Релиз Без Рекламы - Ненормативная лексика --MDB 6.9 --Режиссеры:
Пол Кинг, Том Маршалл, Даина Рейд--В ролях: Стив Карелл, Оуэн Дэниелс, Ноа Эммерих, Джон Малкович, Тоуни Ньюсом, Бен Шварц, Диана Сильверс, Алексей Воробьёв, Джессика Ст. Клер, Фред Уиллард-- Решение создать космические войска - правильное и своевременное. Именно к нему приходят правительства разных государств, которые понимают, что угроза из космоса является более чем реальной. Руководит всем проектом Америка, которая отправляет в это военное подразделение не только свои лучшие умы, но и опытных астронавтов и военных, которые вместе выполняют это ответственнейшее задание. Во главе операции поставили генерала Майка Нерда, которому предстоит управиться с непростой командой. Особенно много неприятностей доставляет бравому вояке Адриан Мэллори - выдающийся и поэтому очень надменный ученый, которого назначили главным советником генерала.-- --Качество : -WEB-DLRip - HEVC HDR 10bit - 1080p.
Формат: MKV
Видео кодек: H265
Видео: 4544 Кбит/сек,1920х1080(16.9), 23.976 кадр/сек , HEVC (Main10@L4@Main@Main) , HDR10--Аудио Кодек:AC3
Аудио #1: MVO LostFilm @DD5.1 AC3, 640 Kbps, 48.0 KHz, 6 ch- LostFilm -Русский
Аудио #2: MVO Кубик в Кубе @DD5.1 AC3, 384 Kbps, 48.0 KHz, 6 ch- Кубик в Кубе -Русский
Аудио #3: MVO NewStudio @DD5.1 AC3, 384 Kbps, 48.0 KHz, 6 ch- NewStudio -Русский
Аудио #4: MVO HDrezka Studio @DD5.1 AC3, 384 Kbps, 48.0 KHz, 6 ch- HDrezka Studio -Русский
Аудио #5: MVO IdeaFilm @DD5.1 AC3, 384 Kbps, 48.0 KHz, 6 ch- IdeaFilm -Русский
Аудио #6: MVO Цікава Ідея @DD5.1 AC3, 384 Kbps, 48.0 KHz, 6 ch- Цікава Ідея -Украинский
Аудио #7: Original@DD5.1 E-AC3 ,768 Kbps, 48.0 KHz, 6 ch - English - Оригинал--

Доп. информация:

Звуковая дорожка сделана путем наложения чистого голоса озвучивателей на центральный канал оригинальной дорожки. Качество идентично звуковой дорожке.
--

Список эпизодов сезона


1 сезон 1 серия - Запуск - The Launch
1 сезон 3 серия - Марк и Мэллори едут в Вашингтон - Mark and Mallory Go to Washington
1 сезон 4 серия - Лунный модуль - Lunar Habitat
1 сезон 5 серия - Космофлаг - Space Flag
1 сезон 6 серия - Шпион - The Spy
1 сезон 7 серия - Эдисон Джеймс - Edison Jaymes
1 сезон 8 серия - Супружеское свидание - Conjugal Visit
1 сезон 9 серия - Как здорово быть дома на луне - It's Good to Be Back on the Moon
1 сезон 10 серия - Соразмерный ответ - Proportionate Response
--

MediaInfo

Общее
Уникальный идентификатор : 65737337099621637299718075360800785138 (0x31748CF40505E5C9035247216D69C2F2)
Полное имя : E:\RussianPatriot\Космические войска - Space Force\Space_Force_2020_S01_HEVC- 10Bit_Н265_DD5.1_N.B_HDR_1080_5xRus_Eng\Space_Force_2020_S01E01_HEVC_DD5.1_N.B_HDR_1080_5xRus_Eng.mkv
Формат : Matroska
Версия формата : Version 4
Размер файла : 1,97 Гбайт
Продолжительность : 36 м. 38 с.
Общий поток : 7 696 Кбит/сек
Название фильма : Space Force 2020 S01E01 @ Nikolai.Baranov & PIRATIYA
Дата кодирования : UTC 2020-06-18 10:09:18
Программа кодирования : mkvmerge v47.0.0 ('Black Flag') 64-bit
Библиотека кодирования : libebml v1.3.10 + libmatroska v1.5.2 / Lavf58.20.100
Видео
Идентификатор : 1
Формат : HEVC
Формат/Информация : High Efficiency Video Coding
Профиль формата : Main 10@L4@Main
HDR format : SMPTE ST 2086, HDR10 compatible
Идентификатор кодека : V_MPEGH/ISO/HEVC
Продолжительность : 35 м. 28 с.
Битрейт : 4 544 Кбит/сек
Ширина : 1 920 пикселей
Высота : 1 080 пикселей
Соотношение сторон : 16:9
Режим частоты кадров : Постоянный
Частота кадров : 23,976 (24000/1001) кадра/сек
Цветовое пространство : YUV
Субдискретизация насыщенности : 4:2:0 (Type 2)
Битовая глубина : 10 бит
Бит/(Пиксели*Кадры) : 0.091
Размер потока : 1,13 Гбайт (57%)
Заголовок : Space_Force_2020_S01E01_HEVC_DD5.1_N.B_HDR_1080_5xRus_Eng
Язык : Russian
Default : Да
Forced : Нет
Цветовой диапазон : Limited
Основные цвета : BT.2020
Характеристики трансфера : PQ
Коэффициенты матрицы : BT.2020 non-constant
Mastering display color primaries : Display P3
Mastering display luminance : min: 0.0001 cd/m2, max: 1000 cd/m2
Maximum Content Light Level : 738 cd/m2
Maximum Frame-Average Light Level : 390 cd/m2
Аудио #1
Идентификатор : 3
Формат : AC-3
Формат/Информация : Audio Coding 3
Коммерческое название : Dolby Digital
Идентификатор кодека : A_AC3
Продолжительность : 36 м. 38 с.
Вид битрейта : Постоянный
Битрейт : 640 Кбит/сек
Каналы : 6 каналов
Channel layout : L R C LFE Ls Rs
Частота : 48,0 КГц
Частота кадров : 31,250 кадров/сек (1536 SPF)
Метод сжатия : С потерями
Задержка видео : -83 мс.
Размер потока : 168 Мбайт (8%)
Заголовок : MVO LostFilm @DD5.1 AC3, 640 Kbps, 48.0 KHz, 6 ch
Язык : Russian
Service kind : Complete Main
Default : Да
Forced : Нет
Аудио #2
Идентификатор : 4
Формат : AC-3
Формат/Информация : Audio Coding 3
Коммерческое название : Dolby Digital
Идентификатор кодека : A_AC3
Продолжительность : 36 м. 38 с.
Вид битрейта : Постоянный
Битрейт : 384 Кбит/сек
Каналы : 6 каналов
Channel layout : L R C LFE Ls Rs
Частота : 48,0 КГц
Частота кадров : 31,250 кадров/сек (1536 SPF)
Метод сжатия : С потерями
Задержка видео : -83 мс.
Размер потока : 101 Мбайт (5%)
Заголовок : MVO NewStudio @DD5.1 AC3, 384 Kbps, 48.0 KHz, 6 ch
Язык : Russian
Service kind : Complete Main
Default : Нет
Forced : Нет
Аудио #3
Идентификатор : 5
Формат : AC-3
Формат/Информация : Audio Coding 3
Коммерческое название : Dolby Digital
Идентификатор кодека : A_AC3
Продолжительность : 35 м. 30 с.
Вид битрейта : Постоянный
Битрейт : 384 Кбит/сек
Каналы : 6 каналов
Channel layout : L R C LFE Ls Rs
Частота : 48,0 КГц
Частота кадров : 31,250 кадров/сек (1536 SPF)
Метод сжатия : С потерями
Задержка видео : -83 мс.
Размер потока : 97,5 Мбайт (5%)
Заголовок : MVO Кубик в Кубе @DD5.1 AC3, 384 Kbps, 48.0 KHz, 6 ch
Язык : Russian
Service kind : Complete Main
Default : Нет
Forced : Нет
Аудио #4
Идентификатор : 6
Формат : AC-3
Формат/Информация : Audio Coding 3
Коммерческое название : Dolby Digital
Идентификатор кодека : A_AC3
Продолжительность : 35 м. 30 с.
Вид битрейта : Постоянный
Битрейт : 384 Кбит/сек
Каналы : 6 каналов
Channel layout : L R C LFE Ls Rs
Частота : 48,0 КГц
Частота кадров : 31,250 кадров/сек (1536 SPF)
Метод сжатия : С потерями
Задержка видео : -83 мс.
Размер потока : 97,5 Мбайт (5%)
Заголовок : MVO HDRezka Studio @DD5.1 AC3, 384 Kbps, 48.0 KHz, 6 ch
Язык : Russian
Service kind : Complete Main
Default : Нет
Forced : Нет
Аудио #5
Идентификатор : 7
Формат : AC-3
Формат/Информация : Audio Coding 3
Коммерческое название : Dolby Digital
Идентификатор кодека : A_AC3
Продолжительность : 35 м. 30 с.
Вид битрейта : Постоянный
Битрейт : 384 Кбит/сек
Каналы : 6 каналов
Channel layout : L R C LFE Ls Rs
Частота : 48,0 КГц
Частота кадров : 31,250 кадров/сек (1536 SPF)
Метод сжатия : С потерями
Задержка видео : -83 мс.
Размер потока : 97,5 Мбайт (5%)
Заголовок : MVO IdeaFilm @DD5.1 AC3, 384 Kbps, 48.0 KHz, 6 ch
Язык : Russian
Service kind : Complete Main
Default : Нет
Forced : Нет
Аудио #6
Идентификатор : 9
Формат : E-AC-3 JOC
Формат/Информация : Enhanced AC-3 with Joint Object Coding
Коммерческое название : Dolby Digital Plus with Dolby Atmos
Идентификатор кодека : A_EAC3
Продолжительность : 36 м. 38 с.
Вид битрейта : Постоянный
Битрейт : 768 Кбит/сек
Каналы : 6 каналов
Channel layout : L R C LFE Ls Rs
Частота : 48,0 КГц
Частота кадров : 31,250 кадров/сек (1536 SPF)
Метод сжатия : С потерями
Задержка видео : -83 мс.
Размер потока : 201 Мбайт (10%)
Заголовок : Original@DD5.1 E-AC3 ,768 Kbps, 48.0 KHz, 6 ch
Язык : English
Service kind : Complete Main
Default : Нет
Forced : Нет
Complexity index : 16
Number of dynamic objects : 15
Bed channel count : 1 канал
Bed channel configuration : LFE
Аудио #7
Идентификатор : 12
Формат : AC-3
Формат/Информация : Audio Coding 3
Коммерческое название : Dolby Digital
Идентификатор кодека : A_AC3
Продолжительность : 36 м. 38 с.
Вид битрейта : Постоянный
Битрейт : 384 Кбит/сек
Каналы : 6 каналов
Channel layout : L R C LFE Ls Rs
Частота : 48,0 КГц
Частота кадров : 31,250 кадров/сек (1536 SPF)
Метод сжатия : С потерями
Задержка видео : -83 мс.
Размер потока : 101 Мбайт (5%)
Заголовок : MVO Цікава Ідея @DD5.1 AC3, 384 Kbps, 48.0 KHz, 6 ch
Язык : Ukrainian
Service kind : Complete Main
Default : Нет
Forced : Нет
Текст #1
Идентификатор : 2
Формат : UTF-8
Идентификатор кодека : S_TEXT/UTF8
Идентификатор кодека/Информация : UTF-8 Plain Text
Продолжительность : 35 м. 12 с.
Битрейт : 120 бит/сек
Count of elements : 619
Размер потока : 31,0 Кбайт (0%)
Заголовок : Запуск-Russian.srt
Язык : Russian
Default : Да
Forced : Нет
Текст #2
Идентификатор : 8
Формат : UTF-8
Идентификатор кодека : S_TEXT/UTF8
Идентификатор кодека/Информация : UTF-8 Plain Text
Продолжительность : 28 м. 39 с.
Битрейт : 7 бит/сек
Count of elements : 29
Размер потока : 1,66 Кбайт (0%)
Заголовок : Запуск-Russian-Forced
Язык : Russian
Default : Нет
Forced : Нет
Текст #3
Идентификатор : 10
Формат : UTF-8
Идентификатор кодека : S_TEXT/UTF8
Идентификатор кодека/Информация : UTF-8 Plain Text
Продолжительность : 35 м. 10 с.
Битрейт : 97 бит/сек
Count of elements : 724
Размер потока : 25,0 Кбайт (0%)
Заголовок : The Launchs-Original - SDH
Язык : English
Default : Нет
Forced : Нет
Текст #4
Идентификатор : 11
Формат : UTF-8
Идентификатор кодека : S_TEXT/UTF8
Идентификатор кодека/Информация : UTF-8 Plain Text
Продолжительность : 35 м. 10 с.
Битрейт : 93 бит/сек
Count of elements : 677
Размер потока : 24,0 Кбайт (0%)
Заголовок : The Launchs-Original
Язык : English
Default : Нет
Forced : Нет
Меню
00:00:00.083 : ru:Глава 01 / ru:Глава 01 / ru:Глава 01 / ru:Глава 01 / ru:Глава 01 / ru:Глава 01 / ru:Глава 01 / ru:Глава 01 / ru:Глава 01 / ru:Глава 01 / ru:Глава 01 / ru:Глава 01
--

Скриншоты

-- 1-сезон.--

Как закачать отдельный файл

1. Открыть торрент
2. Снять галки с тех файлов торрента, которые мы не хотим закачивать. Оставляем только на нужных нам файлах (файле).
3. Нажать О.К.
В клиенте utorrent
Инструкция
1) Открыть торрент

2) Снять галки с тех файлов торрента, которые мы не хотим закачивать:
* либо вручную, снимая с каждого файла галку( скрин №1)
* либо, нажав кнопку "Снять метки (Select None)", сняв сразу со всех файлов(скрин №2)
№1

№2

Оставляем только на нужных нам файлах (файле).

3)Нажать О.К
-- -- --Внимание!!! 02.07. 2020. РАЗДАЧА ОБНОВЛЕНА. ДОБАВЛЕНА - от Кубик в Кубе Звуковая Дорожка. .ФИНАЛ СЕЗОНА. ОБНОВИТЕ ТОРЕНТ ФАЙЛ. ПРИЯТНОГО ПРОСМОТРА . Поблагодарить:
ЯД: 410017546713876
--Релиз от: Nikolai.Baranov & PIRATIYA -- -- -- --Время раздачи : 24/7---


Последний раз редактировалось: Враг Нароода (2020-06-12 08:44), всего редактировалось 4 раз(а)
[Профиль] [ЛС]
Показать сообщения:    
Ответить на тему

Текущее время: 12-Июл 18:37

Часовой пояс: UTC + 3



Вы не можете начинать темы
Вы не можете отвечать на сообщения
Вы не можете редактировать свои сообщения
Вы не можете удалять свои сообщения
Вы не можете голосовать в опросах
Вы не можете прикреплять файлы к сообщениям
Вы не можете скачивать файлы