Страна У / Країна У / Сезон: 1 / Серии: 1-38 из 38 (Студия Квартал-95) [2013, Комедия, SATRip]

Ответить на тему
 
Автор Сообщение

баба Люда ®

Пол: Не указан

Стаж: 7 года 2 месяца

Сообщений: 20

Создавать темы 31-Дек-2013 22:19

[Цитировать]

Страна У / Країна У
Год выпуска: 2013
Производство: Украина, Студия Квартал-95
Жанр: Комедия, скетч
Продолжительность: ~00:26:00
Описание:«Страна У» – скетчком о жизни людей в разных регионах Украины. «У» - естественно, Украина. Мы постоянно Учимся жить, Учимся на собственных ошибках, не забывая Учить других.Мы – Уникальный и Универсальный народ! Мы – «Страна У»!
Мы – разные: одни на западе, другие на востоке, третьи на юге, четвёртые в центре. Но нас объединяют общие житейские проблемы. А еще больше нас объединяет способность смеяться над собой, в каком бы городе страны «У» мы не жили. И каждый наш город – уникален по-своему!
В первом цикле передач мы знакомимся с городами: Киев, Днепропетровск, Тернополь, Николаев, Симферополь, Харьков, а также с безымянным селом в Полтавской области. В роли жителей этих городов – популярные украинские КВНщики, представляющие известные команды КВН: Игорь Ласточкин, Владимир Борисов и Юрий Ткач («Днепр», Днепропетровск), Дарья Кобякова и Кристина Понунаева («Сборная Блондинок Украины», Харьков), Чингис Мазинов, Рустем Эмирсалиев, Сергей Бибилов и Илья Дерменжи («Остров Крым», Симферополь), Тарас Стадницкий и Татьяна Песик («VIP – Тернополь»), Евгений Косниковский, Олег Сёмин и Юлия Мотрук («Сборная Портовых Городов», Николаев – Южный), Ирина Сопонару («Винницкие перцы»).
«Страна У» – это новый проект в формате юмористического скетч-шоу производства «Квартала 95» и «Драйв Продакшн». Креативным продюсером проекта выступил Андрей Чивурин.
К производству «Страны У» привлечены лучшие силы молодого юмора страны. Творческий потенциал проекта – это выходцы из украинского КВН, среди которых есть как знакомые, так и пока неизвестные широкому зрителю лица.
-
Релиз группы::
-
Язык: Русский, Украинский (~80/20)
Сэмпл: http://multi-up.com/910955
Доп. информация: Реклама отсутствует!
-
Качество: SATRip
Формат: AVI
Видео кодек: XviD
Аудио кодек: MP3
Видео: XviD, ~1750 Кбит/с, 720x400, 25 fps, 0.249 (.0.240 bit/pixel)
Аудио: 48 kHz, MPEG Layer 3, 2 ch, 192.00 kbps

MI

бщее
Полное имя : Y:\Страна У\Страна У.(01.seriya).2013.XviD.SATRip.by.simka.avi
Формат : AVI
Формат/Информация : Audio Video Interleave
Размер файла : 348 Мбайт
Продолжительность : 24 м.
Общий поток : 1948 Кбит/сек
Программа кодирования : VirtualDubModRus 1.5.10.2 (build 2542/release)
Библиотека кодирования : VirtualDubMod build 2542/release
Видео
Идентификатор : 0
Формат : MPEG-4 Visual
Профиль формата : Advanced Simple@L5
Параметр BVOP формата : 2
Параметр QPel формата : Нет
Параметр GMC формата : Без точки перехода
Параметр матрицы формата : Default (H.263)
Режим смешивания : Сжатый битовый поток
Идентификатор кодека : XVID
Идентификатор кодека/Подсказка : XviD
Продолжительность : 24 м.
Битрейт : 1746 Кбит/сек
Ширина : 720 пикселей
Высота : 400 пикселей
Соотношение сторон : 5:4
Соотношение сторон в оригинале : 16:9
Частота кадров : 25,000 кадров/сек
Цветовое пространство : YUV
Субдискретизация насыщенности : 4:2:0
Битовая глубина : 8 бит
Тип развёртки : Прогрессивная
Метод сжатия : С потерями
Бит/(Пиксели*Кадры) : 0.243
Размер потока : 312 Мбайт (90%)
Библиотека кодирования : XviD 64
Аудио
Идентификатор : 1
Формат : MPEG Audio
Версия формата : Version 1
Профиль формата : Layer 3
Режим : Joint stereo
Идентификатор кодека : 55
Идентификатор кодека/Подсказка : MP3
Продолжительность : 24 м.
Вид битрейта : Постоянный
Битрейт : 192 Кбит/сек
Каналы : 2 канала
Частота : 48,0 КГц
Метод сжатия : С потерями
Размер потока : 34,3 Мбайт (10%)
Выравнивание : Разделение по промежуткам
Продолжительность промежутка : 40 мс. (1,00 видеокадр)
Время предзагрузки промежутка : 500 мс.

Скринлист

1-5

6-10

11-15

16-20

21-25

26-30

Страна У: Новогодние выпуски
31-38
---
[Профиль] [ЛС]
Показать сообщения:    
Ответить на тему

Текущее время: 04-Мар 00:25

Часовой пояс: UTC + 3



Вы не можете начинать темы
Вы не можете отвечать на сообщения
Вы не можете редактировать свои сообщения
Вы не можете удалять свои сообщения
Вы не можете голосовать в опросах
Вы не можете прикреплять файлы к сообщениям
Вы не можете скачивать файлы