Ээхх, разгуляй! (2013.12.31) SATRip

Ответить на тему
 
Автор Сообщение

Viktor59 ®

Пол: Мужской

Стаж: 8 года

Сообщений: 886

Откуда: Измаил

Создавать темы 01-Янв-2014 09:25

[Цитировать]

- Ээхх, разгуляй! (2013.12.31) SATRip - Режиссер / Телекомпания: НТВ
Русское название: Ээхх, разгуляй!
Год выпуска: 2013
Жанр: ТВ-шоу
Выпущено: Россия
Описание:
«Ээхх, Разгуляй!» — не просто шоу, а настоящий музыкальный марафон: грандиозное действо, сделанное по последнему слову техники со спецэффектами, видеоинсталляциями, номерами танцоров и акробатов, полное юмора и музыкальных сюрпризов. Это яркое мероприятие по праву заслужило звание всенародной дискотеки. С каждым годом проект привлекает все больше и больше участников — как зрителей, так и исполнителей.
Актеры: Михаил Шуфутинский, Катерина Голицына, Любовь Успенская, Сергей Трофимов, Денис Майданов, Ирина Круг, Вячеслав Добрынин, Михаил Бублик, Рада Рай, Андрей Бандера, Сергей Любавин, Вилли Токарев, Игорь Саруханов, группы «Республика», «Лесоповал», «Волга-Волга» и другие
Продолжительность: 02:53:18
Видеокодек: XVID
Качество видео: SATRip
Битрейт видео: ~1800 kb/s
Размер кадра: 720 x 448
Аудиокодек: MP3, 2.0ch.
Битрейт аудио: 192 kb/s

MediaInfo:

ормат : AVI
Формат/Информация : Audio Video Interleave
Профиль формата : OpenDML
Размер файла : 2,42 Гбайт
Продолжительность : 2 ч. 53 м.
Общий поток : 1998 Кбит/сек
Программа кодирования : VirtualDubMod 1.5.10.2 (build 2540/release)
Библиотека кодирования : VirtualDub build 32507/release
Видео
Идентификатор : 0
Формат : MPEG-4 Visual
Профиль формата : Advanced Simple@L5
Параметр BVOP формата : 2
Параметр QPel формата : Нет
Параметр GMC формата : Без точки перехода
Параметр матрицы формата : Default (MPEG)
Идентификатор кодека : XVID
Идентификатор кодека/Подсказка : XviD
Продолжительность : 2 ч. 53 м.
Битрейт : 1794 Кбит/сек
Ширина : 720 пикселей
Высота : 448 пикселей
Соотношение сторон : 1,607
Частота кадров : 25,000 кадров/сек
Цветовое пространство : YUV
Субдискретизация насыщенности : 4:2:0
Битовая глубина : 8 бит
Тип развёртки : Прогрессивная
Метод сжатия : С потерями
Бит/(Пиксели*Кадры) : 0.223
Размер потока : 2,18 Гбайт (90%)
Библиотека кодирования : XviD 64
Аудио
Идентификатор : 1
Формат : MPEG Audio
Версия формата : Version 1
Профиль формата : Layer 3
Режим : Joint stereo
Идентификатор кодека : 55
Идентификатор кодека/Подсказка : MP3
Продолжительность : 2 ч. 53 м.
Вид битрейта : Постоянный
Битрейт : 192 Кбит/сек
Каналы : 2 канала
Частота : 48,0 КГц
Метод сжатия : С потерями
Размер потока : 239 Мбайт (10%)
Выравнивание : Соединение по промежуткам
Продолжительность промежутка : 40 мс. (1,00 видеокадр)
Время предзагрузки промежутка : 504 мс.
Библиотека кодирования : LAME3.90.3
Скриншоты: тест
[Профиль] [ЛС]

Создавать темы 04-Янв-2014 12:53 (спустя 3 дня)

Топик был перенесен из форума Тренировочный раздел в форум Клипы и концерты

Viktor59
 
Показать сообщения:    
Ответить на тему

Текущее время: 28-Фев 07:07

Часовой пояс: UTC + 3



Вы не можете начинать темы
Вы не можете отвечать на сообщения
Вы не можете редактировать свои сообщения
Вы не можете удалять свои сообщения
Вы не можете голосовать в опросах
Вы не можете прикреплять файлы к сообщениям
Вы не можете скачивать файлы