Гундала / Gundala (2019) BDRip-AVC | L

Ответить на тему
 
Автор Сообщение

sergey82 ®

Пол: Мужской

Стаж: 6 года 8 месяца

Сообщений: 476

Создавать темы 27-Июн-2020 17:22

[Цитировать]

Информация о фильме
Название: Гундала
Оригинальное название: Gundala
Год выхода: 2019
Жанр: Боевик, фантастика, драма
Режиссер: Джоко Анвар
В ролях: Абимана Арьясатья, Тара Басро, Бронт Паларэ, Арио Баю, Лукман Сарди, Арсвенди Насутион, Донни Аламшя
О фильме:
Ещё ребенком Санчака потерял родителей — отец погиб, отстаивая права рабочих, а мать уехала на заработки и не вернулась — с тех пор мальчик выживал самостоятельно. Нелегкая жизнь на улице научила его не только эффективно махать ногами, а и думать в первую очередь о собственной безопасности, но когда волна насилия захлёстывает город, мужчине приходится встать на сторону униженных и оскорбленных. А поскольку в результате удара молнии наш герой получил свехспособности, врагам простого народа придётся несладко.

Страна: Индонезия
Студия: Screenplay Films, Bumilangit Studios, Legacy Pictures
Продолжительность: 02:00:07
Перевод: Любительский многоголосый | @MUZOBOZ@
Субтитры: English
Файл
Формат: Matroska
Качество: BDRip-AVC [Gundala.2019.BDRemux.1080p]
Видео: 1132x474 at 24.00 fps, x264@L4.1, ~1787 kbps, 0.139 bpp
Аудио: AC3, 2 ch, ~192 kbps - | Русский | -
Формат субтитров: softsub (SRT)

M/I

x264 [info]: frame I:1387 Avg QP:15.21 size: 61534
x264 [info]: frame P:35292 Avg QP:16.71 size: 20984
x264 [info]: frame B:136137 Avg QP:19.83 size: 5758
x264 [info]: consecutive B-frames: 2.0% 2.0% 7.5% 18.3% 14.5% 29.1% 11.9% 10.3% 1.3% 0.6% 0.5% 0.2% 0.5% 0.6% 0.4%
General
Format : Matroska
Format version : Version 4
File size : 1.66 GiB
Duration : 2 h 0 min
Overall bit rate : 1 981 kb/s
Movie name : Гундала.(2019).BDRip-AVC.[-=DoMiNo=-]
Encoded date : UTC 2020-06-27 12:03:30
Writing application : mkvmerge v47.0.0 ('Black Flag') 64-bit
Writing library : libebml v1.3.10 + libmatroska v1.5.2
Cover : Yes
Attachments : Cover.jpg
Video
ID : 1
Format : AVC
Format/Info : Advanced Video Codec
Format profile : High@L4.1
Format settings : CABAC / 12 Ref Frames
Format settings, CABAC : Yes
Format settings, Reference : 12 frames
Codec ID : V_MPEG4/ISO/AVC
Duration : 2 h 0 min
Bit rate : 1 787 kb/s
Width : 1 132 pixels
Height : 474 pixels
Display aspect ratio : 2.40:1
Frame rate mode : Constant
Frame rate : 23.976 (24000/1001) FPS
Color space : YUV
Chroma subsampling : 4:2:0
Bit depth : 8 bits
Scan type : Progressive
Bits/(Pixel*Frame) : 0.139
Stream size : 1.50 GiB (90%)
Title : -=DoMiNo=-
Writing library : x264 core 160 r3009 4c9b076
Encoding settings : cabac=1 / ref=12 / deblock=1:-2:-2 / analyse=0x3:0x133 / me=umh / subme=10 / psy=1 / psy_rd=1.00:0.15 / mixed_ref=1 / me_range=32 / chroma_me=1 / trellis=2 / 8x8dct=1 / cqm=0 / deadzone=21,11 / fast_pskip=1 / chroma_qp_offset=-3 / threads=6 / lookahead_threads=1 / sliced_threads=0 / nr=0 / decimate=1 / interlaced=0 / bluray_compat=0 / constrained_intra=0 / bframes=14 / b_pyramid=2 / b_adapt=2 / b_bias=0 / direct=1 / weightb=1 / open_gop=0 / weightp=2 / keyint=250 / keyint_min=23 / scenecut=40 / intra_refresh=0 / rc=crf / mbtree=0 / crf=19.0 / qcomp=0.60 / qpmin=0 / qpmax=69 / qpstep=4 / ip_ratio=1.40 / pb_ratio=1.30 / aq=3:1.00
Language : English
Default : Yes
Forced : No
Color range : Limited
Color primaries : BT.709
Transfer characteristics : BT.709
Matrix coefficients : BT.709
Audio
ID : 2
Format : AC-3
Format/Info : Audio Coding 3
Commercial name : Dolby Digital
Codec ID : A_AC3
Duration : 2 h 0 min
Bit rate mode : Constant
Bit rate : 192 kb/s
Channel(s) : 2 channels
Channel layout : L R
Sampling rate : 48.0 kHz
Frame rate : 31.250 FPS (1536 SPF)
Compression mode : Lossy
Stream size : 165 MiB (10%)
Title : MUZOBOZ
Language : Russian
Service kind : Complete Main
Default : Yes
Forced : No
Text
ID : 3
Format : UTF-8
Codec ID : S_TEXT/UTF8
Codec ID/Info : UTF-8 Plain Text
Duration : 1 h 54 min
Bit rate : 36 b/s
Count of elements : 1059
Stream size : 30.5 KiB (0%)
Language : English
Default : No
Forced : No
Menu
00:00:00.000 : en:Chapter 01
00:10:11.069 : en:Chapter 02
00:19:56.278 : en:Chapter 03
00:30:55.437 : en:Chapter 04
00:41:31.656 : en:Chapter 05
00:53:05.849 : en:Chapter 06
01:04:59.979 : en:Chapter 07
01:16:29.210 : en:Chapter 08
01:27:29.202 : en:Chapter 09
01:37:49.822 : en:Chapter 10
01:47:07.922 : en:Chapter 11
01:55:53.113 : en:Chapter 12

Скриншоты

[Профиль] [ЛС]
Показать сообщения:    
Ответить на тему

Текущее время: 14-Июл 05:33

Часовой пояс: UTC + 3



Вы не можете начинать темы
Вы не можете отвечать на сообщения
Вы не можете редактировать свои сообщения
Вы не можете удалять свои сообщения
Вы не можете голосовать в опросах
Вы не можете прикреплять файлы к сообщениям
Вы не можете скачивать файлы